<?xml version="1.0" standalone="no"?>
<!DOCTYPE svg PUBLIC "-//W3C//DTD SVG 1.1//EN" "http://www.w3.org/Graphics/SVG/1.1/DTD/svg11.dtd" >
<svg xmlns="http://www.w3.org/2000/svg">
<metadata>Generated by IcoMoon</metadata>
<defs>
<font id="icomoon" horiz-adv-x="1024">
<font-face units-per-em="1024" ascent="960" descent="-64" />
<missing-glyph horiz-adv-x="1024" />
<glyph unicode="&#x20;" horiz-adv-x="512" d="" />
<glyph unicode="&#xe900;" glyph-name="eye" horiz-adv-x="1365" d="M619.776 906.411c-69.709-8.179-133.15-27.931-190.826-57.365l3.178 1.472c-74.752-36.523-132.181-77.824-198.571-143.019-60.945-59.402-114.293-126.132-158.747-198.889l-2.533-4.461c-29.525-49.92-29.44-63.147 0.512-113.067 47.602-77.717 101.497-144.912 162.76-204.58l0.227-0.22c112.811-110.080 236.203-175.019 370.688-194.901 22.864-2.649 49.357-4.16 76.203-4.16s53.338 1.511 79.397 4.453l-3.194-0.293c109.909 16.299 213.931 63.488 311.808 141.653 30.635 24.491 102.315 95.744 129.877 129.109 40.789 49.493 85.845 114.859 104.875 152.064 7.339 14.507 8.533 18.859 8.619 32.683 0.027 0.728 0.043 1.584 0.043 2.442 0 8.33-1.454 16.32-4.121 23.731l0.154-0.488c-8.789 21.419-52.053 87.979-84.992 130.816-41.045 53.248-108.117 122.539-154.453 159.573-72.107 57.515-154.368 101.632-233.301 125.099-47.033 13.657-101.060 21.513-156.922 21.513-21.373 0-42.477-1.15-63.255-3.391l2.576 0.225zM725.589 780.203c140.032-14.763 273.493-98.56 390.656-245.333 21.76-27.307 60.245-82.773 60.245-86.955 0-4.096-36.949-57.003-60.331-86.357-97.877-123.051-210.773-204.288-323.84-233.216-32.885-9.155-70.648-14.417-109.64-14.417-31.992 0-63.157 3.542-93.124 10.256l2.828-0.532c-138.069 29.269-273.92 132.949-383.744 292.779-6.692 9.049-13.252 19.344-19.098 30.084l-0.7 1.404c0 4.181 38.571 59.733 60.501 87.211 72.192 90.453 147.883 154.88 231.936 197.376 79.104 40.021 162.389 56.32 244.309 47.701zM641.707 678.912c-97.083-18.27-172.334-93.952-189.735-189.791l-0.217-1.441c-2.108-11.806-3.314-25.396-3.314-39.268 0-105.054 69.132-193.961 164.384-223.71l1.66-0.447c20.376-6.698 43.828-10.561 68.181-10.561s47.806 3.863 69.776 11.010l-1.594-0.449c84.836 26.227 148.101 97.299 162.63 184.838l0.186 1.359c1.921 11.273 3.019 24.258 3.019 37.499 0 115.302-83.248 211.16-192.917 230.75l-1.419 0.21c-12.119 1.996-26.087 3.136-40.32 3.136s-28.201-1.14-41.815-3.335l1.495 0.199zM708.779 551.424c53.419-13.909 87.979-66.475 78.933-120.064-9.728-58.112-64.597-98.048-121.515-88.491-62.037 10.496-102.571 71.339-87.125 130.901 5.205 19.712 13.995 35.243 28.331 49.493 19.105 19.448 45.683 31.5 75.076 31.5 9.346 0 18.408-1.219 27.034-3.506l-0.734 0.165z" />
<glyph unicode="&#xe901;" glyph-name="file-list" horiz-adv-x="838" d="M117.248 957.859c-50.176-7.82-93.37-44.73-110.173-94.022-7.308-21.597-7.075-6.33-7.075-415.604 0-324.655 0.326-381.766 2.048-393.263 8.453-52.368 44.846-94.53 93.126-111.134l0.988-0.296c21.318-7.215 14.010-7.075 322.746-7.075 243.572 0 289.001 0.326 300.404 2.048 52.368 8.453 94.53 44.846 111.134 93.126l0.296 0.988c7.308 21.597 7.075 6.33 7.075 415.604 0 324.655-0.326 381.766-2.048 393.263-8.453 52.368-44.846 94.53-93.126 111.134l-0.988 0.296c-21.364 7.215-13.777 7.075-324.143 6.935-232.727-0.093-290.63-0.512-300.265-2.001zM718.103 862.487c8.518-4.236 17.967-13.684 22.202-22.202l3.258-6.656v-770.793l-3.258-6.656c-5.199-9.435-12.767-17.003-21.917-22.058l-0.285-0.144-6.656-3.258h-585.076l-6.656 3.258c-9.435 5.199-17.003 12.767-22.058 21.917l-0.144 0.285-3.258 6.656-0.419 382.604c-0.279 277.69 0.047 384.14 1.164 388.189 3.444 12.474 16.198 26.019 28.905 30.673 4.422 1.629 50.828 1.908 296.401 1.676l291.142-0.233 6.656-3.258zM219.927 678.772c-7.977-2.262-14.782-6.505-20.085-12.171l-0.022-0.024c-6.647-6.118-11.173-14.449-12.406-23.818l-0.021-0.199c-3.305-20.992 6.237-39.983 25.135-50.083l6.004-3.212h400.756l7.401 4.096c19.363 10.705 28.625 33.047 22.807 54.644-3.072 11.264-13.871 23.18-26.252 28.905l-6.749 3.119-195.491 0.279c-154.95 0.186-196.655-0.14-201.076-1.536zM222.022 493.103c-18.070-4.319-31.79-18.962-34.689-37.21l-0.034-0.259c-3.351-25.833 12.195-48.128 36.771-52.643 11.543-2.141 378.135-2.141 389.679 0 24.529 4.515 40.076 26.717 36.817 52.55-3.090 19.213-17.772 34.273-36.53 37.888l-0.288 0.046c-12.148 2.281-381.207 1.908-391.727-0.372zM217.647 305.99c-17.84-6.227-30.466-22.779-30.766-42.321v-0.036c-0.093-12.195 1.862-19.223 7.587-27.276 5.772-8.099 13.265-14.15 21.69-17.408 6.237-2.374 16.849-2.513 202.752-2.513s196.515 0.14 202.752 2.513c12.474 4.841 24.623 17.687 27.834 29.51 1.125 3.863 1.772 8.301 1.772 12.889 0 17.867-9.812 33.442-24.341 41.631l-0.239 0.124-7.401 4.096-198.284 0.279c-159.744 0.279-199.261-0.047-203.357-1.489z" />
<glyph unicode="&#xe902;" glyph-name="file-lock" horiz-adv-x="931" d="M118.737 958.278c-14.196-2.095-25.135-5.585-40.401-13.033-36.214-18.402-63.098-50.761-73.819-89.808l-0.235-1.002-3.491-13.126v-786.618l3.491-13.126c13.652-49.463 51.82-87.631 100.274-101.045l1.009-0.238 13.126-3.491h358.4l7.215 3.305c9.263 4.282 19.363 14.429 23.505 23.599 2.144 5.602 3.385 12.081 3.385 18.851s-1.242 13.249-3.509 19.223l0.124-0.372c-5.23 10.213-13.318 18.331-23.207 23.458l-0.298 0.141c-7.215 3.305-7.261 3.305-181.76 4.096l-174.545 0.791-7.308 3.351c-10.968 5.656-19.49 14.765-24.26 25.867l-0.129 0.338c-3.212 8.564-3.212 8.611-3.212 388.561v379.997l3.258 8.657c4.282 11.543 15.453 22.714 26.996 26.996l8.657 3.258h286.906c285.929 0 286.953 0 295.471-3.212 10.38-3.863 21.504-14.243 26.205-24.39l3.351-7.308 0.791-151.273c0.791-150.714 0.791-151.319 4.096-158.487 4.282-9.263 14.429-19.363 23.599-23.505 10.007-4.515 27.695-4.515 37.702 0 9.169 4.143 19.316 14.243 23.599 23.505l3.305 7.215v311.855l-3.491 13.126c-13.625 49.21-51.395 87.258-99.427 101.033l-1.018 0.25-12.428 3.491-296.308 0.233c-163.514 0.093-300.497-0.419-305.617-1.164zM710.144 423.145c-8.751-2.234-13.172-4.934-25.135-15.453-20.893-18.452-45.697-33.037-72.952-42.325l-1.521-0.45c-14.3-5.367-30.842-8.947-48.071-9.984l-0.476-0.023c-18.758-1.676-26.903-4.841-36.026-13.964-11.59-11.59-13.219-17.268-12.986-45.009 0.094-61.893 14.657-120.363 40.486-172.238l-1.016 2.254c33.373-68.701 87.831-122.321 141.172-138.985 8.983-2.839 15.127-3.631 27.834-3.631 18.758 0 31.651 3.351 51.107 13.126 23.785 12.009 53.248 36.119 72.983 59.718 53.295 63.814 83.735 150.295 84.387 239.756 0.233 27.741-1.396 33.42-12.986 45.009-9.169 9.169-17.408 12.335-36.119 13.964-17.657 0.999-34.174 4.584-49.605 10.387l1.152-0.38c-28.796 9.702-53.61 24.325-74.691 43.058l0.218-0.19c-5.075 4.635-10.749 8.767-16.852 12.232l-0.463 0.242c-6.061 2.386-13.080 3.77-20.423 3.77-3.54 0-7.006-0.322-10.368-0.937l0.351 0.053zM731.695 310.598c22.9-15.22 65.257-33.745 91.788-40.169 10.985-2.7 11.217-2.839 11.217-7.633 0-14.383-10.519-55.948-20.201-79.686-19.503-47.709-54.831-90.717-85.876-104.448l-7.168-3.165-7.168 3.165c-31.046 13.731-66.374 56.692-85.923 104.541-9.588 23.552-20.154 65.117-20.154 79.407 0 5.027 0.093 5.12 11.217 7.82 23.84 6.309 44.606 14.517 64.103 24.806l-1.639-0.788c16.617 8.285 35.188 19.27 38.959 23.087 0.093 0.047 4.98-3.072 10.845-6.935z" />
<glyph unicode="&#xe903;" glyph-name="bag" horiz-adv-x="1126" d="M67.804 496.433c-26.749 9.17-55.867-5.080-65.037-31.828-9.17-26.747 5.080-55.864 31.829-65.039l33.208 96.868zM1091.471 399.452c26.813 8.991 41.262 38.011 32.276 64.82-8.991 26.811-38.011 41.261-64.819 32.273l32.543-97.093zM153.6 704v-51.2h819.2v102.4h-819.2v-51.2zM1075.2 601.6h-51.2v-512h102.4v512h-51.2zM972.8-12.8v51.2h-819.2v-102.4h819.2v51.2zM51.2 89.6h51.2v512h-102.4v-512h51.2zM153.6-12.8v51.2c-28.277 0-51.2 22.922-51.2 51.2h-102.4c0-84.833 68.769-153.6 153.6-153.6v51.2zM1075.2 89.6h-51.2c0-28.278-22.922-51.2-51.2-51.2v-102.4c84.833 0 153.6 68.767 153.6 153.6h-51.2zM972.8 704v-51.2c28.278 0 51.2-22.923 51.2-51.2h102.4c0 84.831-68.767 153.6-153.6 153.6v-51.2zM153.6 704v51.2c-84.831 0-153.6-68.769-153.6-153.6h102.4c0 28.277 22.923 51.2 51.2 51.2v51.2zM460.8 908.8v-51.2h204.8v102.4h-204.8v-51.2zM768 806.4h-51.2v-102.4h102.4v102.4h-51.2zM358.4 704h51.2v102.4h-102.4v-102.4h51.2zM665.6 908.8v-51.2c28.278 0 51.2-22.923 51.2-51.2h102.4c0 84.831-68.767 153.6-153.6 153.6v-51.2zM460.8 908.8v51.2c-84.831 0-153.6-68.769-153.6-153.6h102.4c0 28.277 22.923 51.2 51.2 51.2v51.2zM51.2 448l-16.604-48.435c202.6-69.453 363.751-105.139 527.273-104.899 163.43 0.236 325.412 36.347 529.603 104.786l-32.543 97.093c-199.404-66.839-349.496-99.269-497.208-99.479-147.613-0.215-296.665 31.744-493.916 99.366l-16.604-48.433z" />
<glyph unicode="&#xe904;" glyph-name="file-edit" horiz-adv-x="931" d="M118.737 958.278c-14.196-2.095-25.135-5.585-40.401-13.033-36.214-18.402-63.098-50.761-73.819-89.808l-0.235-1.002-3.491-13.126v-786.618l3.491-13.126c13.652-49.463 51.82-87.631 100.274-101.045l1.009-0.238 13.126-3.491h132.655c132.468 0 132.655 0 139.869 3.305 9.263 4.282 19.363 14.429 23.505 23.599 2.144 5.602 3.385 12.081 3.385 18.851s-1.242 13.249-3.509 19.223l0.124-0.372c-5.23 10.213-13.318 18.331-23.207 23.458l-0.298 0.141c-7.168 3.305-8.332 3.305-135.215 4.096-127.441 0.791-128.047 0.791-135.308 4.143-10.968 5.656-19.49 14.765-24.26 25.867l-0.129 0.338c-3.212 8.564-3.212 8.611-3.212 388.561v379.997l3.258 8.657c4.282 11.543 15.453 22.714 26.996 26.996l8.657 3.258h286.906c285.929 0 286.953 0 295.471-3.212 10.38-3.863 21.504-14.243 26.205-24.39l3.351-7.308 0.791-151.273c0.791-150.714 0.791-151.319 4.096-158.487 4.282-9.263 14.429-19.363 23.599-23.505 10.007-4.515 27.695-4.515 37.702 0 9.169 4.143 19.316 14.243 23.599 23.505l3.305 7.215v311.855l-3.491 13.126c-13.625 49.21-51.395 87.258-99.427 101.033l-1.018 0.25-12.428 3.491-296.308 0.233c-163.514 0.093-300.497-0.419-305.617-1.164zM802.118 400.012c-19.97-2.873-37.698-10.795-52.356-22.421l0.225 0.172c-5.027-3.863-59.159-57.251-120.273-118.551-98.257-98.537-111.43-112.314-114.036-119.203-2.653-7.075-2.886-12.753-2.886-65.164 0-55.436 0.093-57.623 3.305-64.605 4.282-9.216 14.383-19.316 23.599-23.599 6.982-3.212 9.169-3.305 64.605-3.305 52.41 0 58.089 0.233 65.164 2.886 6.889 2.607 20.666 15.779 119.203 114.036 61.3 61.114 114.688 115.247 118.551 120.273 8.751 11.171 16.337 26.391 19.921 39.75 3.677 13.638 3.677 43.613 0.047 57.158-10.24 38.121-42.356 70.423-79.546 79.965-9.444 2.071-20.292 3.257-31.417 3.257-4.966 0-9.877-0.236-14.722-0.699l0.618 0.048zM829.487 304.5c5.399-3.537 8.844-12.288 7.587-19.27-0.884-4.841-14.801-19.363-102.912-107.567l-101.888-102.028h-27.183v27.183l101.236 101.050c55.668 55.575 102.633 101.841 104.355 102.819 3.956 2.281 13.731 1.117 18.804-2.188z" />
<glyph unicode="&#xe905;" glyph-name="chevron-up" d="M782.933 280.192c9.771 3.456 21.589 15.531 25.003 25.557 1.638 4.275 2.586 9.219 2.586 14.386 0 5.209-0.964 10.193-2.724 14.783l0.095-0.283c-2.517 7.68-14.507 20.139-137.813 143.531-131.243 131.328-135.296 135.168-144.299 137.813-5.12 1.493-11.307 2.688-13.781 2.688s-8.661-1.195-13.781-2.688c-9.003-2.645-13.056-6.528-144.384-137.813-131.285-131.328-135.168-135.381-137.813-144.384-3.371-11.563-3.371-16-0.085-27.008 4.821-16.256 22.784-29.44 40.064-29.44 3.413 0 9.984 1.237 14.635 2.773 7.637 2.56 19.072 13.44 124.885 118.997l116.48 116.224 116.48-116.224c105.813-105.557 117.248-116.437 124.885-118.997 4.367-1.596 9.408-2.519 14.665-2.519 5.346 0 10.469 0.955 15.208 2.703l-0.305-0.098z" />
<glyph unicode="&#xe906;" glyph-name="file-text" horiz-adv-x="838" d="M117.248 957.859c-50.223-7.866-93.37-44.73-110.173-94.022-7.308-21.597-7.075-6.33-7.075-415.604 0-324.655 0.326-381.766 2.048-393.263 8.453-52.368 44.846-94.53 93.126-111.134l0.988-0.296c21.318-7.215 14.010-7.075 322.746-7.075 243.572 0 289.001 0.326 300.404 2.048 52.368 8.453 94.53 44.846 111.134 93.126l0.296 0.988c7.215 21.318 7.075 14.243 7.075 320.233 0 206.708-0.419 286.487-1.583 291.84-1.426 5.457-3.532 10.246-6.27 14.596l0.126-0.214c-2.513 3.863-69.167 71.447-148.154 150.249-127.023 126.697-144.524 143.639-151.319 146.618l-7.68 3.351-196.887 0.233c-158.58 0.186-199.215-0.14-208.803-1.676zM465.268 745.332l0.419-121.158 3.677-7.866c4.794-10.147 11.823-17.827 21.039-22.947l7.401-4.096 246.505-0.745-0.745-525.684-3.258-6.656c-5.199-9.435-12.767-17.003-21.917-22.058l-0.285-0.144-6.656-3.258h-585.076l-6.656 3.258c-9.435 5.199-17.003 12.767-22.058 21.917l-0.144 0.285-3.258 6.656-0.419 382.604c-0.279 277.69 0.047 384.14 1.164 388.189 3.444 12.474 16.198 26.019 28.905 30.673 4.375 1.629 33.699 1.955 173.103 2.048l167.889 0.093 0.372-121.111zM619.287 740.771l60.044-60.044h-120.785v60.044c0 33.047 0.14 60.044 0.372 60.044 0.186 0 27.369-26.996 60.369-60.044zM223.651 633.065c-20.666-3.398-36.631-22.761-36.724-44.451-0.047-15.36 4.282-25.274 15.267-35.235 12.66-11.45 17.92-12.288 77.079-12.288s64.419 0.838 77.079 12.288c10.985 9.961 15.313 19.875 15.267 35.235 0 0.035 0 0.077 0 0.119 0 22.384-16.357 40.948-37.77 44.391l-0.257 0.034c-10.752 1.769-99.328 1.676-109.94-0.093zM217.647 445.626c-16.056-5.72-27.851-19.624-30.455-36.56l-0.033-0.258c-1.21-9.123 0.512-21.178 4.049-28.16 4.049-7.913 13.498-16.803 22.202-20.852l7.913-3.724h395.171l7.913 3.724c9.381 4.72 16.951 11.857 22.068 20.604l0.134 0.249c1.443 2.839 3.165 8.657 3.817 12.893 0.452 2.446 0.71 5.26 0.71 8.135 0 18.236-10.393 34.044-25.58 41.824l-0.265 0.123-6.004 3.212-198.284 0.279c-159.744 0.279-199.261-0.047-203.357-1.489zM219.229 260.189c-12.521-3.351-27.462-18.339-30.86-30.953-2.793-10.287-1.862-23.831 2.234-32.768 4.701-10.24 15.174-20.154 25.274-23.971 7.587-2.793 9.495-2.839 203.031-2.839 194.374 0 195.444 0 203.124 2.886 9.868 3.677 20.62 14.010 25.321 24.25 3.956 8.611 4.841 22.342 2.095 32.442-3.537 13.079-18.525 27.741-31.837 31.092-7.587 1.908-391.261 1.815-398.383-0.14z" />
<glyph unicode="&#xe907;" glyph-name="pie-chart" d="M500.922 958.417c-12.567-3.072-24.902-13.079-30.86-25.041-3.212-6.47-3.305-13.219-3.724-249.623-0.326-163.793 0.14-245.062 1.303-249.53 2.467-9.169 11.404-20.201 21.225-26.298l8.378-5.167h246.737c240.64 0 246.924 0.093 253.393 3.305 15.174 7.54 24.576 21.969 26.112 39.983 1.303 15.593-2.234 59.299-7.168 88.157-40.257 230.243-230.048 405.806-463.983 423.92l-1.751 0.109c-24.669 2.001-42.031 2.048-49.664 0.186zM296.96 912.57c-91.201-42.755-165.491-108.686-217.204-190.333l-1.234-2.086c-40.076-63.721-63.395-129.071-74.519-208.989-3.677-26.345-4.143-96.535-0.791-121.204 17.268-127.395 70.144-231.75 160.628-316.742 112.919-106.124 273.734-155.043 428.358-130.281 151.024 24.558 277.752 112.23 354.261 234.535l1.253 2.149c10.473 16.989 29.556 54.086 35.235 68.468 12.707 32.256-9.169 65.071-43.473 65.071-10.938 0-28.020-8.006-33.885-15.919-2.188-2.979-10.1-17.687-17.548-32.721-21.862-45.073-50.141-83.498-84.18-115.933l-0.16-0.152c-55.901-54.132-116.829-88.111-191.023-106.543-28.482-7.75-61.185-12.202-94.927-12.202-2.235 0-4.465 0.020-6.691 0.058l0.335-0.005c-0.293-0.001-0.64-0.001-0.987-0.001-99.264 0-190.391 34.835-261.825 92.947l0.761-0.6c-25.094 21.411-47.586 44.286-67.954 68.979l-0.747 0.933c-72.192 93.277-102.028 215.18-80.756 330.24 15.996 87.88 57.665 164.11 116.841 222.686l0.035 0.034c32.489 32.489 63.814 55.063 107.427 77.359 14.615 7.494 28.998 15.407 31.977 17.594 3.025 2.281 7.82 8.89 10.845 15.081 4.794 9.635 5.353 12.335 4.748 21.783-0.507 16.502-9.722 30.741-23.184 38.328l-0.228 0.118c-5.818 3.444-10.333 4.561-20.48 5.027-12.567 0.652-13.591 0.372-30.906-7.68zM581.399 860.998c70.889-12.102 138.705-42.636 194.281-87.505 17.548-14.15 47.709-44.311 61.766-61.812 46.573-57.816 78.69-129.133 89.799-207.215l0.267-2.286 1.117-8.099h-370.548v185.158c0 108.684 0.652 185.204 1.536 185.204 0.838 0 10.659-1.583 21.783-3.444z" />
<glyph unicode="&#xe908;" glyph-name="star" d="M490.098 892.587c-7.040-3.027-13.034-7.216-18.018-12.385l-0.016-0.017c-8.818-8.875-9.444-10.183-52.11-112.924-26.101-65.824-42.385-103.353-59.192-140.595l10.78 26.704c-5.177-9.899-14.222-18.716-24.405-23.893-8.875-4.494-23.211-6.087-135.509-14.905-59.62-4.722-111.445-9.387-115.2-10.354-37.376-9.956-53.646-55.694-31.118-87.438 1.877-2.674 43.748-39.424 92.956-81.636 90.681-77.824 97.109-84.025 101.148-98.588 4.039-14.507 2.276-24.292-24.747-137.387-18.375-76.8-26.453-113.721-26.453-120.604 0-35.84 36.58-63.545 70.713-53.646 9.557 2.788 22.812 10.638 162.247 95.801 24.405 14.905 48.185 28.444 52.907 30.094 10.866 3.755 24.974 3.755 35.84 0 4.665-1.65 44.26-24.804 87.893-51.428l98.304-60.018c30.72-18.66 46.251-20.935 68.267-10.126 18.62 8.982 31.269 27.659 31.403 49.305v0.018c0 6.884-8.078 43.748-26.453 120.548-27.022 113.095-28.786 122.937-24.747 137.444 4.039 14.564 10.468 20.764 101.148 98.588 49.209 42.212 91.079 78.962 92.956 81.636 22.528 31.744 6.258 77.483-31.118 87.438-3.755 0.967-55.58 5.632-115.2 10.354-112.299 8.818-126.635 10.411-135.509 14.905-10.419 5.437-18.765 13.619-24.254 23.594l-0.151 0.299c-5.609 9.508-21.911 47.054-37.701 84.868l-10.768 29.081c-42.61 102.628-43.292 104.107-52.11 112.868-11.435 11.435-23.211 16.156-40.391 15.986-8.078-0.057-15.36-1.252-21.39-3.584z" />
<glyph unicode="&#xe909;" glyph-name="share" horiz-adv-x="931" d="M721.92 958.417c-79.36-10.007-142.476-68.608-159.604-148.154-3.77-17.548-3.77-54.365 0-72.657 1.583-7.773 2.234-14.243 1.443-15.034 29.756 13.088-49.799-34.023-129.648-80.687l-113.924-61.509c-1.164-0.465-5.679 2.42-10.1 6.377-24.019 21.009-53.568 36.299-86.171 43.424l-1.288 0.236c-17.082 3.724-55.808 3.724-72.89 0-65.676-14.196-118.365-60.276-139.311-121.903-7.308-21.411-9.356-34.63-9.356-60.509 0-34.025 5.585-57.623 20.108-85.271 26.717-50.781 71.866-84.899 128.559-97.14 17.082-3.724 55.808-3.724 72.89 0 33.891 7.361 63.44 22.65 87.686 43.854l-0.227-0.194c4.655 4.189 8.937 6.842 10.24 6.33 3.817-1.443 240.407-139.45 242.688-141.498 1.815-1.676 1.676-4.096-0.698-15.686-3.77-18.292-3.77-55.11 0-72.657 10.519-48.919 38.772-91.136 78.476-117.388 22.528-14.941 41.612-22.993 67.491-28.579 17.082-3.724 55.808-3.724 72.89 0 74.705 16.105 129.862 71.261 145.967 145.967 1.908 8.751 2.7 19.456 2.7 36.445 0 34.025-5.585 57.623-20.108 85.271-26.717 50.781-71.866 84.899-128.559 97.14-17.082 3.724-55.808 3.724-72.89 0-32.675-7.028-64.279-22.807-87.273-43.52-2.621-2.55-5.497-4.864-8.579-6.893l-0.218-0.135c-1.21 0-243.247 140.986-245.062 142.755-0.791 0.745-0.14 7.215 1.443 14.988 3.863 18.758 3.863 53.667 0 72.425-1.583 7.773-2.234 14.243-1.443 15.034-29.756-13.088 49.799 34.023 129.648 80.687l113.924 61.509c1.164 0.465 5.679-2.42 10.1-6.377 16.617-14.941 41.891-29.696 63.395-37.004 21.411-7.308 34.63-9.356 60.509-9.356 34.025 0 57.623 5.585 85.271 20.108 50.781 26.717 84.899 71.866 97.14 128.559 3.724 17.082 3.724 55.808 0 72.89-16.105 74.519-72.285 130.793-145.548 145.734-11.901 2.070-25.606 3.254-39.587 3.254-7.070 0-14.068-0.303-20.984-0.895l0.9 0.062zM765.068 864.675c17.548-3.724 30.022-10.892 44.823-25.693 9.775-9.728 14.569-16.012 18.385-23.878 12.567-26.159 12.567-56.413 0-82.572-7.168-14.848-27.415-35.095-42.263-42.263-26.159-12.567-56.413-12.567-82.572 0-14.848 7.168-35.095 27.415-42.263 42.263-5.947 12.068-9.425 26.271-9.425 41.286s3.478 29.218 9.673 41.846l-0.248-0.56c7.168 14.895 27.415 35.095 42.356 42.263 12.126 5.951 26.39 9.431 41.468 9.431 7.108 0 14.034-0.773 20.701-2.24l-0.636 0.117zM206.522 538.857c17.548-3.724 30.022-10.892 44.823-25.693 9.775-9.728 14.569-16.012 18.385-23.878 12.567-26.159 12.567-56.413 0-82.572-7.168-14.848-27.415-35.095-42.263-42.263-26.159-12.567-56.413-12.567-82.572 0-14.848 7.168-35.095 27.415-42.263 42.263-5.947 12.068-9.425 26.271-9.425 41.286s3.478 29.218 9.673 41.846l-0.248-0.56c7.168 14.895 27.415 35.095 42.356 42.263 12.126 5.951 26.39 9.431 41.468 9.431 7.108 0 14.034-0.773 20.701-2.24l-0.636 0.117zM765.068 213.039c17.548-3.724 30.022-10.892 44.823-25.693 9.775-9.728 14.569-16.012 18.385-23.878 12.567-26.159 12.567-56.413 0-82.572-7.168-14.848-27.415-35.095-42.263-42.263-26.159-12.567-56.413-12.567-82.572 0-14.848 7.168-35.095 27.415-42.263 42.263-5.96 11.954-9.448 26.039-9.448 40.938 0 15.594 3.821 30.295 10.577 43.219l-0.245-0.515c8.145 15.5 26.95 34.211 41.472 41.193 12.121 5.953 26.382 9.435 41.456 9.435 7.112 0 14.043-0.775 20.712-2.245l-0.635 0.118z" />
<glyph unicode="&#xe90a;" glyph-name="more-vertical" d="M489.685 828.885c-36.651-9.557-63.317-44.928-62.933-83.413 0.427-40.832 31.488-76.501 72.021-82.731 27.861-4.267 53.077 4.011 73.088 24.064 13.824 13.824 21.248 28.16 24.064 46.635 0.655 3.968 1.030 8.541 1.030 13.202 0 47.034-38.129 85.163-85.163 85.163-7.863 0-15.477-1.066-22.705-3.060l0.598 0.141zM489.685 530.219c-36.651-9.557-63.317-44.928-62.933-83.413 0.427-40.832 31.488-76.501 72.021-82.731 27.861-4.267 53.077 4.011 73.088 24.064 13.824 13.824 21.248 28.16 24.064 46.635 0.658 3.976 1.034 8.557 1.034 13.227 0 46.954-38.018 85.028-84.95 85.12h-0.009c-6.101 0-16.128-1.323-22.315-2.901zM489.685 231.552c-36.651-9.557-63.317-44.928-62.933-83.413 0.427-40.832 31.488-76.501 72.021-82.731 27.861-4.267 53.077 4.011 73.088 24.064 13.824 13.824 21.248 28.16 24.064 46.635 0.658 3.976 1.034 8.557 1.034 13.227 0 46.954-38.018 85.028-84.95 85.12h-0.009c-6.101 0-16.128-1.323-22.315-2.901z" />
<glyph unicode="&#xe90b;" glyph-name="whatsapp" d="M0-64l72.374 262.815c-44.745 77.138-68.218 164.5-67.973 253.809 0 279.848 228.859 507.377 509.8 507.377 136.433 0 264.556-52.806 360.648-148.684 96.338-95.879 149.396-223.392 149.151-358.936 0-279.846-228.859-507.374-510.044-507.374h-0.246c-85.332 0-169.199 21.412-243.773 61.809l-269.937-70.815zM282.896 98.555l15.404-9.247c65.039-38.451 139.614-58.644 215.656-58.89h0.246c233.503 0 423.731 189.082 423.731 421.719 0 112.669-44.012 218.525-123.965 298.342s-186.557 123.62-299.766 123.62c-233.506 0.244-423.734-188.836-423.734-421.475 0-79.575 22.25-157.199 64.795-224.364l10.025-16.061-42.789-155.5 160.397 41.856zM386.080 680.289c-9.43 22.669-19.343 23.19-28.289 23.451-7.254 0.261-15.716 0.261-24.178 0.261s-22.003-3.387-33.608-16.936c-11.606-13.55-44.005-46.381-44.005-113.346 0-66.704 45.214-131.324 51.5-140.443 6.286-9.124 87.284-150.61 215.191-205.066 106.383-45.338 128.143-36.219 151.112-33.874 22.973 2.345 74.47 32.829 85.11 64.62 10.399 31.79 10.399 58.89 7.255 64.62-3.144 5.734-11.607 9.124-24.182 15.898-12.57 6.774-74.47 39.603-86.072 44.293-11.607 4.429-20.070 6.774-28.288-6.774-8.463-13.548-32.645-44.037-39.895-53.156-7.255-9.119-14.751-10.163-27.325-3.384-12.57 6.774-53.19 21.105-101.305 67.487-37.477 35.958-62.864 80.513-70.118 94.062s-0.725 20.845 5.561 27.62c5.561 5.993 12.573 15.895 18.859 23.711s8.463 13.55 12.573 22.669c4.11 9.12 2.176 16.937-0.967 23.711-3.143 6.514-27.806 73.74-38.927 100.578z" />
<glyph unicode="&#xe90c;" glyph-name="bookmark" horiz-adv-x="819" d="M716.8 806.4c0 13.579-5.396 26.598-15.002 36.2-9.6 9.602-22.62 15-36.198 15h-512c-13.579 0-26.598-5.398-36.2-15s-15-22.621-15-36.2v-730.952l281.8 161.004 6.050 2.949c14.46 5.903 30.975 4.92 44.75-2.949l281.8-161.004v730.952zM819.2-12.8c0-18.253-9.713-35.139-25.498-44.298s-35.256-9.206-51.103-0.154l-333 190.3-333-190.3c-15.844-9.052-35.315-9.006-51.1 0.154s-25.5 26.045-25.5 44.298v819.2c0 40.737 16.194 79.794 45 108.6s67.863 45 108.6 45h512c40.735 0 79.795-16.194 108.6-45s45-67.863 45-108.6v-819.2z" />
<glyph unicode="&#xe90d;" glyph-name="chat" d="M472.277 915.669c-95.872-9.344-179.243-42.752-254.635-102.101-19.669-15.488-63.787-61.056-79.787-82.389-49.323-65.835-78.933-137.557-91.221-220.885-4.096-27.904-4.139-99.243-0.043-125.952 6.016-39.168 16.853-79.488 29.952-111.232l6.571-16-20.139-114.901c-11.093-63.189-20.181-117.632-20.224-121.003-0.256-21.717 20.096-42.539 41.643-42.539 2.859 0 57.387 9.173 121.088 20.395 104.96 18.475 116.309 20.181 120.491 18.005 9.856-5.12 41.173-16.171 62.293-21.973 98.304-27.179 208.725-20.053 304.043 19.627 57.728 24.021 104.192 55.467 150.827 102.144 56.277 56.235 92.331 114.901 115.883 188.672 15.872 49.664 21.333 86.059 21.333 142.464 0 31.019-0.768 47.104-2.987 62.293-12.203 83.2-41.899 155.051-91.221 220.885-16 21.333-60.117 66.901-79.787 82.389-68.139 53.632-142.976 86.187-226.944 98.645-27.051 4.011-82.859 5.803-107.136 3.456zM568.32 827.691c41.793-6.165 79.494-18.452 114.047-36.037l-2.089 0.965c114.475-55.893 192.171-162.261 211.712-290.005 4.139-27.051 4.139-82.176 0-109.227-19.541-127.787-97.109-234.027-211.883-290.261-48.695-24.511-106.126-38.863-166.909-38.863-5.223 0-10.421 0.106-15.592 0.316l0.742-0.024c-51.755 1.877-93.824 11.179-136.533 30.208-32.341 14.379-21.547 14.72-128.64-4.181-51.499-9.045-93.952-16.171-94.336-15.829-0.341 0.384 6.699 42.837 15.701 94.336 11.349 64.811 16.043 95.488 15.232 99.669-2.917 9.811-6.064 18.032-9.745 25.956l0.486-1.166c-22.571 51.84-31.659 96.341-31.573 154.453 0.128 63.915 11.051 111.915 38.315 168.107 38.133 77.386 99.276 138.558 174.409 175.727l2.231 0.998c43.989 21.461 83.883 32.341 139.947 38.144 13.739 1.408 67.029-0.64 84.48-3.285z" />
<glyph unicode="&#xe90e;" glyph-name="chevron-down" d="M241.067 615.808c-9.771-3.456-21.589-15.531-25.003-25.557-1.638-4.275-2.586-9.219-2.586-14.386 0-5.209 0.964-10.193 2.724-14.783l-0.095 0.283c2.517-7.68 14.507-20.139 137.813-143.531 131.243-131.328 135.296-135.168 144.299-137.813 5.12-1.493 11.307-2.688 13.781-2.688s8.661 1.195 13.781 2.688c9.003 2.645 13.056 6.528 144.384 137.813 131.285 131.328 135.168 135.381 137.813 144.384 3.371 11.563 3.371 16 0.085 27.008-4.821 16.256-22.784 29.44-40.064 29.44-3.413 0-9.984-1.237-14.635-2.773-7.637-2.56-19.072-13.44-124.885-118.997l-116.48-116.224-116.48 116.224c-105.813 105.557-117.248 116.437-124.885 118.997-4.367 1.596-9.408 2.519-14.665 2.519-5.346 0-10.469-0.955-15.208-2.703l0.305 0.098z" />
<glyph unicode="&#xe90f;" glyph-name="close" d="M58.002 958.098c-36.645-7.095-62.245-44.178-56.613-81.993 3.73-25.234-8.265-11.995 209.189-229.669l198.144-198.437-198.144-198.437c-217.454-217.673-205.458-204.434-209.189-229.669-0.527-3.283-0.828-7.067-0.828-10.922 0-39.992 32.42-72.411 72.411-72.411 3.855 0 7.639 0.301 11.331 0.881l-0.409-0.053c25.234 3.73 11.995-8.265 229.742 209.189l198.363 198.144 198.437-198.144c217.673-217.454 204.434-205.458 229.669-209.189 3.283-0.527 7.067-0.828 10.922-0.828 39.992 0 72.411 32.42 72.411 72.411 0 3.855-0.301 7.639-0.881 11.331l0.053-0.409c-3.73 25.234 8.265 11.995-209.189 229.669l-198.144 198.437 198.144 198.363c217.454 217.746 205.458 204.507 209.189 229.742 0.527 3.283 0.828 7.067 0.828 10.922 0 39.992-32.42 72.411-72.411 72.411-3.855 0-7.639-0.301-11.331-0.881l0.409 0.053c-25.234-3.73-11.995 8.265-229.669-209.189l-198.437-198.144-198.437 198.144c-215.333 215.113-204.434 205.093-227.474 208.896-4.070 0.894-8.746 1.406-13.54 1.406-5.157 0-10.176-0.592-14.991-1.713l0.445 0.087z" />
<glyph unicode="&#xe910;" glyph-name="coins" d="M349.867 915.584c-120.593-12.859-221.438-86.598-272.172-189.48l-0.895-2.008c-21.419-43.349-33.95-94.379-33.95-148.336 0-81.699 28.728-156.688 76.635-215.417l-0.487 0.617c12.203-15.104 41.472-43.819 55.936-54.869 35.486-26.935 77.183-47.916 122.384-60.485l2.587-0.614c6.528-1.707 7.381-2.56 9.088-9.088 8.491-32.427 26.325-73.344 43.605-99.84 34.496-52.925 81.653-94.936 137.289-122.365l2.018-0.899c43.266-21.479 94.224-34.047 148.116-34.047 53.927 0 104.914 12.584 150.186 34.976l-1.982-0.886c114.952 56.582 192.731 172.747 193.067 307.112v0.045c0 147.029-95.36 278.315-235.691 324.395-11.221 3.669-21.888 6.699-23.765 6.699-3.968 0-4.139 0.427-13.44 29.867-27.136 86.059-89.941 159.019-172.629 200.619-27.521 14.042-59.452 24.748-93.087 30.444l-1.975 0.276c-23.040 3.968-68.608 5.632-90.837 3.285zM433.493 826.923c64.205-13.186 118.478-48.701 155.558-97.903l0.474-0.657c10.325-13.739 35.115-59.349 35.115-64.64 0-2.432-4.523-3.371-23.339-4.949-31.616-2.645-73.856-14.677-106.88-30.421-35.226-16.628-65.384-37.849-91.307-63.36l0.043 0.042c-58.325-56.064-93.995-129.237-102.827-210.901-0.58-7.056-1.517-13.429-2.824-19.665l0.179 1.020c-0.427-0.384-6.699 1.835-13.952 4.992-78.123 33.835-132.949 101.461-150.784 186.027-4.949 23.381-5.504 69.547-1.109 93.013 13.099 70.357 52.011 130.219 109.653 168.747 30.698 21.050 67.413 35.681 107.060 41.111l1.313 0.147c22.485 3.285 60.587 2.091 83.627-2.603zM684.416 571.861c56.747-10.069 110.805-40.491 147.84-83.115 29.795-34.228 50.949-76.731 59.614-123.614l0.247-1.612c3.84-20.821 3.84-66.219 0-87.040-4.313-24.425-11.52-46.256-21.388-66.553l0.652 1.486c-35.797-74.709-99.029-124.459-181.291-142.592-24.363-5.376-75.819-5.376-100.181 0-106.027 23.381-182.528 102.016-202.069 207.659-3.84 20.864-3.84 66.176 0 87.040 12.971 70.187 52.011 130.219 109.653 168.747 38.959 26.978 87.223 43.095 139.252 43.095 3.245 0 6.476-0.063 9.69-0.187l-0.463 0.014c13.141-0.427 30.421-1.877 38.443-3.328zM625.664 530.645c-14.763-5.419-24.32-16.853-27.52-32.939l-1.835-9.173-9.6-2.987c-34.56-10.667-62.123-40.107-71.339-76.117-12.075-47.189 11.392-98.56 54.741-119.936 19.925-9.813 32.555-12.075 66.987-12.117 31.957-0.043 36.352-1.152 42.24-10.795 1.987-2.979 3.17-6.642 3.17-10.581s-1.184-7.602-3.215-10.652l0.044 0.071c-6.485-10.624-7.424-10.752-72.32-10.752-63.531 0-67.243-0.427-79.061-9.472-4.048-3.509-7.489-7.575-10.241-12.105l-0.127-0.225c-4.053-6.869-4.736-9.941-4.736-20.864s0.683-13.995 4.736-20.864c10.24-17.408 21.333-21.803 54.997-21.803h24.32l1.152-7.253c4.053-25.472 30.976-41.259 55.808-32.811 15.104 5.163 25.557 17.963 28.416 34.944 1.195 6.955 1.579 7.296 10.667 10.112 43.5 14.288 74.456 54.294 75.007 101.61l0.001 0.065c-0.33 40.917-23.555 76.333-57.48 94.098l-0.589 0.281c-19.712 9.899-32.341 12.203-66.987 12.245-31.957 0.043-36.352 1.152-42.24 10.795-1.987 2.979-3.17 6.642-3.17 10.581s1.184 7.602 3.215 10.652l-0.044-0.071c6.485 10.624 7.424 10.752 72.235 10.752 66.944 0 70.059 0.469 82.347 12.757 7.731 7.619 12.521 18.205 12.521 29.909s-4.79 22.29-12.516 29.904l-0.005 0.005c-10.539 10.539-18.859 12.757-48.128 12.757-22.528 0-24.448 0.256-24.448 3.115 0 7.381-6.059 20.096-12.757 26.795-7.695 7.718-18.338 12.494-30.096 12.494-5.072 0-9.936-0.888-14.445-2.518l0.296 0.093z" />
<glyph unicode="&#xe911;" glyph-name="shield-off" d="M30.767 956.788c-25.414-9.076-37.795-40.122-25.553-64 2.095-4.096 21.271-24.762 46.173-49.757l42.636-42.775-6.842-5.492c-10.659-8.518-14.662-17.315-21.318-46.406-11.924-48.962-18.764-105.173-18.764-162.982 0-12.565 0.323-25.054 0.961-37.46l-0.071 1.739c5.772-122.694 38.353-231.983 100.073-335.546 27.989-46.692 59.748-87.041 95.935-122.932l0.042-0.041c71.168-71.587 151.319-120.832 243.014-149.364 10.193-3.165 21.411-5.772 24.902-5.772 7.215 0 30.627 6.796 55.529 16.151 73.775 27.788 143.5 72.192 203.636 129.815l20.992 20.154 79.686-79.407c51.107-50.921 81.967-80.384 86.063-82.246 25.228-11.45 55.994 2.42 63.628 28.672 1.34 4.102 2.113 8.823 2.113 13.724 0 7.434-1.778 14.452-4.933 20.653l0.12-0.259c-5.167 10.287-943.476 948.177-952.879 952.413-5.634 2.384-12.186 3.769-19.061 3.769-5.756 0-11.285-0.971-16.433-2.758l0.352 0.106zM500.038 958.511c-8.844-2.886-15.732-7.494-26.903-17.827-36.771-34.164-68.655-57.297-109.615-79.546-22.9-12.428-27.555-16.431-33.559-28.672-2.907-5.772-4.609-12.581-4.609-19.786 0-7.532 1.86-14.63 5.145-20.859l-0.117 0.244c8.192-16.663 22.202-25.367 41.053-25.321 8.844 0 13.079 1.071 23.738 6.144 27.927 13.265 72.332 41.658 100.259 64.093 8.239 6.656 15.732 12.102 16.57 12.102s8.332-5.446 16.57-12.102c90.345-72.611 204.847-117.295 318.511-124.23 12.893-0.791 23.738-1.769 24.111-2.141 1.489-1.489 7.866-43.148 10.287-67.351 1.396-14.010 2.56-40.448 2.56-58.833 0-85.225-15.174-163.095-47.244-241.943-8.099-19.921-9.495-24.948-9.495-34.444-0.186-41.751 51.572-61.719 79.5-30.673 6.144 6.842 9.775 14.010 19.596 38.726 30.255 76.288 45.661 148.992 49.664 234.31 0.543 10.437 0.852 22.659 0.852 34.954 0 57.817-6.843 114.035-19.762 167.89l0.989-4.886c-7.866 34.444-12.567 42.543-29.696 51.479-7.261 3.77-10.007 4.049-50.362 5.073-47.476 1.164-67.025 3.537-104.96 12.8-80.384 19.642-152.855 59.345-219.183 120.041-8.378 7.68-18.339 15.546-22.109 17.455-7.494 3.817-24.716 5.632-31.791 3.305zM453.958 440.273l272.244-272.244-17.92-17.268c-50.921-49.105-99.421-81.361-159.604-105.984-6.233-2.785-15.553-6.378-25.017-9.663l-3.143-0.949-9.356-2.932-19.642 7.215c-66.607 24.483-125.347 62.464-179.2 115.991-66.234 65.862-114.223 145.78-143.965 239.802-18.097 56.63-28.527 121.77-28.527 189.347 0 37.119 3.147 73.503 9.189 108.9l-0.536-3.801c1.862 10.985 3.398 20.387 3.398 20.945 0 1.489 6.563 2.42 18.804 2.653l11.078 0.233 272.198-272.244z" />
<glyph unicode="&#xe912;" glyph-name="facebook" d="M498.347 934.644l-23.893-2.584c-168.57-17.749-319.781-127.366-389.949-282.624-27.348-59.053-43.3-128.166-43.3-201.006 0-72.964 16.006-142.189 44.699-204.357l-1.253 3.028c67.841-146.111 201.708-251.578 362.203-278.759l2.877-0.403c2.243 0 2.536 20.821 2.536 169.789v169.838h-124.587v139.947h124.587v62.708c0 35.109 0.829 69.486 1.902 78.068 10.728 87.966 64.219 143.214 149.748 154.673 20.285 2.731 81.091 0.829 114.59-3.511l26.868-3.511c0.244 0 0.439-26.77 0.439-59.49v-59.49l-40.521-1.024c-26.624-0.634-43.496-1.804-49.054-3.365-27.941-7.851-45.446-27.258-50.322-55.832-1.17-6.875-1.707-29.598-1.414-59.733l0.536-48.664 66.95-0.439c43.788-0.293 66.999-1.024 66.999-2.146 0-0.975-4.632-31.646-10.24-68.218-5.656-36.571-10.24-67.243-10.24-68.218 0-1.17-19.31-1.755-57.149-1.755h-57.198v-169.838c0-143.799 0.341-169.789 2.389-169.789 114.319 19.051 212.957 75.578 285.086 156.297l0.415 0.472c128.341 143.994 159.305 348.453 79.579 525.41-24.186 53.687-56.271 99.328-101.083 143.848-77.141 76.654-170.959 122.539-281.015 137.362-19.358 2.633-78.409 4.779-91.185 3.316z" />
<glyph unicode="&#xe913;" glyph-name="heart" d="M292.693 872.917c-102.144-10.837-192.085-79.659-229.845-175.829-35.584-90.667-23.637-189.355 32.683-269.995 8.875-12.715 41.643-46.592 168.747-174.507 241.195-242.731 223.189-225.109 233.856-228.651 11.093-3.669 23.979-2.773 33.707 2.261 7.851 4.053 376.789 373.12 388.395 388.523 38.784 51.456 58.155 104.448 60.629 165.717 4.992 124.843-73.728 239.317-191.573 278.656-22.551 7.929-48.567 12.773-75.632 13.35l-0.272 0.005c-74.667 2.773-133.931-18.048-195.925-68.821l-5.589-4.608-6.357 5.931c-52.992 49.536-136.192 76.117-212.821 67.968zM346.069 787.584c31.107-4.433 59.008-15.303 83.288-31.237l-0.77 0.475c17.024-11.477 28.16-21.589 43.861-39.808 16.896-19.627 24.149-23.936 40.405-23.979 13.995-0.043 25.557 6.357 36.693 20.352 29.287 37.147 71.181 63.215 119.14 71.762l1.18 0.174c22.229 3.883 57.557 2.389 79.829-3.413 54.812-14.897 99.149-51.538 123.987-99.849l0.514-1.1c15.061-29.696 20.821-54.571 20.864-89.6 0.043-33.536-5.333-58.197-18.816-86.443-14.165-29.696-13.995-29.525-193.835-209.664l-170.368-170.667-72.704 72.533c-155.093 154.795-269.397 271.872-277.461 284.203-23.552 36.011-32.896 67.413-32.896 110.891 0 53.973 17.408 98.304 53.291 135.979 43.435 45.568 102.699 67.029 163.797 59.392z" />
<glyph unicode="&#xe914;" glyph-name="linkedin" d="M98.15 957.594c-19.57-5.444-35.613-17.921-45.58-34.471l-0.193-0.345c-10.394-19.098-9.728 13.773-9.728-474.778s-0.666-455.68 9.728-474.778c6.298-11.52 20.582-24.474 34.202-30.925l11.571-5.427h870.4l11.469 5.427c19.62 9.062 34.389 25.804 40.617 46.267l0.139 0.529c3.123 10.035 3.226 24.371 3.226 458.906s-0.102 448.87-3.226 458.906c-4.352 13.978-10.24 23.552-20.275 32.973-9.224 8.797-20.813 15.192-33.717 18.134l-0.485 0.093c-13.67 2.867-856.371 2.406-868.147-0.512zM282.419 815.718c13.568-3.533 26.010-10.906 37.12-22.067 34.15-34.099 33.69-91.75-1.024-126.413-32.717-32.717-82.688-32.358-115.456 0.768-18.381 18.586-25.549 36.403-25.549 63.334 0 57.6 50.79 98.458 104.909 84.378zM735.642 586.24c30.362-3.482 56.166-12.8 77.517-28.058 32.819-23.398 52.531-64.051 61.747-127.232 2.458-16.998 2.97-41.523 3.584-181.35l0.666-161.69h-145.101l-0.717 143.77c-0.461 96.41-1.331 146.893-2.611 153.19-7.731 37.939-21.453 57.242-46.95 65.997-12.134 4.147-40.909 4.096-54.835-0.102-34.202-10.291-51.917-37.888-57.037-88.883-1.178-11.674-1.894-66.099-1.894-146.278v-127.693h-145.050v488.090h139.878l0.922-67.277 7.68 11.878c22.938 35.379 63.283 60.006 108.39 66.15 7.136 0.561 15.452 0.881 23.842 0.881 10.552 0 20.986-0.506 31.279-1.495l-1.31 0.102zM332.8 331.93v-244.019h-145.050v488.090h145.050v-244.070z" />
<glyph unicode="&#xe915;" glyph-name="lock" d="M485.547 915.499c-99.072-9.771-183.936-77.995-216.363-173.952-11.051-32.64-13.099-54.4-13.141-140.16l-0.043-67.669-32.853-0.811c-28.288-0.725-34.731-1.408-46.549-4.949-41.664-13.255-73.73-45.673-86.242-86.625l-0.243-0.927-3.925-13.739v-341.333l3.925-13.739c12.998-42.417 45.733-75.152 87.218-87.903l0.931-0.246 13.739-3.925h640l13.739 3.925c42.417 12.998 75.152 45.733 87.903 87.218l0.246 0.931 3.925 13.739v341.333l-3.925 13.739c-12.756 41.879-44.822 74.297-85.559 87.297l-0.926 0.255c-11.819 3.541-18.261 4.224-46.549 4.949l-32.853 0.811-0.043 67.669c-0.043 37.205-0.768 75.008-1.621 84.011-5.483 60.887-32.028 114.71-72.195 154.925l0.003-0.003c-54.869 55.979-129.792 82.987-208.597 75.179zM544.299 828.629c71.040-14.507 123.392-68.224 135.808-139.307 2.005-11.563 2.56-30.123 2.56-85.376v-70.613h-341.333v71.851c0 80.725 1.067 90.965 12.629 119.637 30.592 75.819 111.36 119.893 190.336 103.808zM824.747 445.568c9.429-3.371 17.664-10.283 22.997-19.371l4.736-8.064v-324.267l-4.736-8.064c-5.205-8.884-13.166-15.672-22.692-19.27l-0.305-0.101c-9.515-3.371-615.979-3.371-625.493 0-9.832 3.699-17.793 10.487-22.884 19.162l-0.113 0.208-4.736 8.064v324.267l4.736 8.064c5.333 9.088 13.568 16 22.997 19.371 9.515 3.371 615.979 3.371 625.493 0zM498.048 359.979c-11.136-3.413-22.741-15.275-26.112-26.752-3.968-13.269-3.84-143.829 0.128-155.477 5.291-15.488 23.424-28.416 39.936-28.416 10.112 0 21.931 5.12 29.739 12.928 12.672 12.672 12.928 14.549 12.928 93.739s-0.256 81.067-12.928 93.739c-11.904 11.904-26.88 15.403-43.691 10.24z" />
<glyph unicode="&#xe916;" glyph-name="mail" d="M142.080 824.218c-25.139-5.53-52.275-23.347-69.171-45.466-11.264-14.694-17.050-26.624-21.709-44.902-3.328-13.056-3.43-18.893-3.43-285.85 0-267.162 0.102-272.794 3.43-286.003 4.454-17.562 11.725-32.256 22.938-46.234 17.459-21.709 40.294-36.557 66.509-43.213 13.312-3.379 18.79-3.43 371.354-3.43s358.042 0.051 371.354 3.43c26.214 6.656 49.050 21.504 66.509 43.213 11.213 13.978 18.483 28.672 22.938 46.234 3.328 13.21 3.43 18.842 3.43 286.003 0 266.957-0.102 272.794-3.43 285.85-4.026 17.163-11.494 32.175-21.678 44.922l0.174-0.225c-11.668 15.282-26.454 27.579-43.468 36.079l-0.718 0.325c-26.163 12.8 2.304 11.93-396.493 11.776-296.141-0.154-359.731-0.614-368.538-2.509zM872.090 747.315c8.243-3.84 19.405-14.131 23.091-21.248l2.253-4.352-191.232-133.888c-105.216-73.626-192.614-133.837-194.202-133.837s-88.986 60.211-194.202 133.837l-191.232 133.888 2.253 4.352c3.021 5.837 14.182 16.896 20.224 20.019 2.662 1.382 8.038 3.123 11.93 3.942 3.942 0.768 163.789 1.28 355.277 1.178l348.16-0.256 7.68-3.635zM308.89 501.043c99.994-69.99 184.422-128.563 187.699-130.253 4.37-1.913 9.463-3.026 14.815-3.026 0.21 0 0.419 0.002 0.628 0.005h-0.031c0.177-0.003 0.387-0.005 0.596-0.005 5.353 0 10.445 1.113 15.059 3.12l-0.244-0.095c3.277 1.69 87.706 60.262 187.699 130.253 99.942 69.939 182.733 127.795 183.91 128.512 1.741 1.075 2.099-42.035 1.69-223.693l-0.461-224.973-3.942-8.038c-4.762-9.626-18.381-22.374-27.238-25.549-9.37-3.328-704.768-3.328-714.138 0-8.858 3.174-22.477 15.923-27.238 25.549l-3.942 8.038-0.461 224.973c-0.41 181.658-0.051 224.768 1.69 223.693 1.178-0.717 83.968-58.573 183.91-128.512z" />
<glyph unicode="&#xe917;" glyph-name="search" d="M427.236 915.57c-81.914-8.074-155.593-37.934-216.739-83.639l1.131 0.808c-23.040-17.124-67.243-61.326-84.366-84.366-52.538-69.431-84.154-157.232-84.154-252.418 0-68.152 16.208-132.519 44.979-189.455l-1.103 2.406c64-129.479 186.368-215.495 330.524-232.334 31.175-3.641 84.594-2.389 114.119 2.617 67.982 11.492 134.087 39.595 185.572 78.848l13.653 10.468 90.681-90.453c61.668-61.554 93.127-91.762 98.361-94.436 15.417-7.964 35.783-4.551 48.412 8.078 7.605 7.684 12.303 18.257 12.303 29.928 0 6.723-1.559 13.082-4.336 18.735l0.111-0.25c-2.674 5.234-32.882 36.693-94.436 98.361l-90.453 90.681 10.468 13.653c39.253 51.484 67.356 117.589 78.848 185.572 5.006 29.525 6.258 82.944 2.617 114.119-11.208 98.553-55.135 185.19-120.481 250.359l-0.009 0.009c-63.248 63.317-146.406 106.733-239.281 120.053l-2.269 0.267c-18.527 2.097-40.001 3.294-61.755 3.294-11.396 0-22.716-0.328-33.95-0.976l1.554 0.072zM519.68 827.847c36.523-6.542 58.368-13.653 92.16-30.094 82.659-40.385 145.065-111.484 173.078-198.057l0.661-2.363c22.756-70.542 20.139-155.932-6.77-223.573-35.288-88.499-104.070-157.281-190.279-191.761l-2.29-0.808c-42.951-17.067-93.867-24.576-144.668-21.447-121.116 7.452-229.604 81.692-281.657 192.74-19.070 38.078-30.573 82.851-31.399 130.229l-0.004 0.274c-0.218 4.471-0.342 9.709-0.342 14.977 0 52.915 12.523 102.904 34.766 147.167l-0.86-1.888c50.485 101.552 147.854 173.177 262.995 186.84l1.595 0.154c18.944 2.276 74.866 0.853 93.013-2.389z" />
<glyph unicode="&#xe918;" glyph-name="send" d="M924.992 920.896c-94.464-32.192-860.992-301.824-864.832-304.192-13.506-8.935-22.292-24.058-22.292-41.233 0-1.345 0.054-2.678 0.16-3.996l-0.011 0.174c1.633-11.752 6.793-22.077 14.361-30.107l-0.025 0.027c6.72-6.4 4.8-5.504 203.008-93.568l177.728-78.912 78.912-177.728c106.033-255.2 134.205-317.038 162.577-378.766l-78.609 190.798c6.208-12.672 11.776-18.624 22.72-24.384 6.326-3.051 13.756-4.834 21.603-4.834 7.301 0 14.241 1.544 20.512 4.322l-0.324-0.128c9.619 4.784 17.256 12.339 22.016 21.613l0.128 0.275c1.92 4.096 71.040 200.512 153.664 436.544 122.112 349.056 150.144 430.72 150.144 437.696-0.514 18.958-11.308 35.28-26.99 43.642l-0.274 0.134c-6.656 3.392-27.328 4.992-34.176 2.624zM607.552 610.944c-111.104-111.168-148.416-147.52-150.784-146.88-6.208 1.536-239.744 105.92-238.976 106.816 1.216 1.28 531.84 187.392 534.848 187.584 1.408 0.064-63.872-66.304-145.088-147.52zM729.472 422.144c-98.359-304.416-130.396-393.286-162.829-481.966l68.429 213.934c-0.768-0.896-101.632 223.36-107.072 238.144-0.896 2.56 27.904 32.256 146.24 150.592 48.635 49.006 96.849 96.835 145.434 144.286l2.534 2.466c0.32-0.32-41.408-120.704-92.736-267.456z" />
<glyph unicode="&#xe919;" glyph-name="telegram" d="M945.51 829.133c-27.546-2.918-77.312-20.173-190.31-65.843-121.702-49.254-250.163-103.731-488.96-207.36l-167.27-72.448c-39.526-17.050-51.558-23.347-64.154-33.485-23.808-19.2-20.019-40.858 9.677-55.808 12.646-6.349 34.56-13.978 88.32-30.566 110.438-34.15 143.667-35.994 193.178-10.752 7.936 4.096 74.035 47.411 146.739 96.307 137.37 92.314 224.87 150.118 252.416 166.656 12.186 7.322 17.664 9.677 22.733 9.677 13.363 0 19.507-13.773 11.162-24.986-14.080-18.893-72.346-75.776-194.97-190.362-105.216-98.304-116.941-111.77-116.941-134.246 0-23.398 12.186-35.482 85.35-84.685 82.074-55.245 196.506-132.659 215.040-145.408 21.35-14.746 47.104-27.29 63.13-30.618 52.019-10.957 76.595 16.179 93.030 102.707 17.066 74.797 45.69 241.798 71.461 409.738l10.305 81.628c18.278 126.464 22.016 168.909 16.691 189.594-2.826 10.573-9.643 19.21-18.698 24.371l-0.195 0.102c-6.195 3.174-23.859 7.219-29.082 6.656l-8.653-0.87z" />
<glyph unicode="&#xe91a;" glyph-name="twitter" d="M130.194 804.645l149.114-194.999c77.873-101.864 143.36-187.587 145.506-190.513l3.901-5.364-143.116-163.645c22.447 27.138-25.075-27.089-72.518-81.387l-72.939-85.232c-2.194-2.779 1.17-2.926 59.733-2.926h62.123l111.762 127.854c61.489 70.363 112.542 127.707 113.518 127.464 0.926-0.195 45.495-57.539 99.084-127.415l97.378-127.074 124.879-0.39c68.706-0.244 124.928 0.098 124.879 0.829s-71.826 96.061-159.598 211.919c-158.135 208.75-159.5 210.7-156.379 214.211l268.288 306.469-125.464-0.244-101.327-115.907c-55.686-63.781-101.815-115.956-102.449-115.956-0.585 0-40.619 52.224-88.942 116.053l-87.82 116.053h-257.122l7.509-9.801zM558.958 457.606l228.157-301.934-69.437 0.195-450.024 588.605 74.557-0.195 216.747-286.671z" />
<glyph unicode="&#xe91b;" glyph-name="chevron-right" d="M344.192 177.067c3.456-9.771 15.531-21.589 25.557-25.003 4.275-1.638 9.219-2.586 14.386-2.586 5.209 0 10.193 0.964 14.783 2.724l-0.283-0.095c7.68 2.517 20.139 14.507 143.531 137.813 131.328 131.243 135.168 135.296 137.813 144.299 1.493 5.12 2.688 11.307 2.688 13.781s-1.195 8.661-2.688 13.781c-2.645 9.003-6.528 13.056-137.813 144.384-131.328 131.285-135.381 135.168-144.384 137.813-11.563 3.371-16 3.371-27.008 0.085-16.256-4.821-29.44-22.784-29.44-40.064 0-3.413 1.237-9.984 2.773-14.635 2.56-7.637 13.44-19.072 118.997-124.885l116.224-116.48-116.224-116.48c-105.557-105.813-116.437-117.248-118.997-124.885-1.596-4.367-2.519-9.408-2.519-14.665 0-5.346 0.955-10.469 2.703-15.208l-0.098 0.305z" />
<glyph unicode="&#xe91c;" glyph-name="chevron-left" d="M679.808 718.933c-3.456 9.771-15.531 21.589-25.557 25.003-4.275 1.638-9.219 2.586-14.386 2.586-5.209 0-10.193-0.964-14.783-2.724l0.283 0.095c-7.68-2.517-20.139-14.507-143.531-137.813-131.328-131.243-135.168-135.296-137.813-144.299-1.493-5.12-2.688-11.307-2.688-13.781s1.195-8.661 2.688-13.781c2.645-9.003 6.528-13.056 137.813-144.384 131.328-131.285 135.381-135.168 144.384-137.813 11.563-3.371 16-3.371 27.008-0.085 16.256 4.821 29.44 22.784 29.44 40.064 0 3.413-1.237 9.984-2.773 14.635-2.56 7.637-13.44 19.072-118.997 124.885l-116.224 116.48 116.224 116.48c105.557 105.813 116.437 117.248 118.997 124.885 1.596 4.367 2.519 9.408 2.519 14.665 0 5.346-0.955 10.469-2.703 15.208l0.098-0.305z" />
<glyph unicode="&#xe91d;" glyph-name="thumbs-down" d="M180.038 957.44c-51.386-9.775-93.603-47.057-108.218-95.604-1.955-6.563-18.665-108.311-37.143-226.118-36.817-234.636-37.236-238.313-30.673-266.1 10.007-42.403 42.589-80.477 82.665-96.675 25.879-10.426 19.177-9.961 153.553-10.566l123.299-0.512v-76.335c0-82.572 1.071-96.023 9.449-121.018 23.645-70.47 85.271-119.249 160.489-127.116 28.207-2.932 43.194 1.536 54.458 16.337 2.467 3.212 44.684 94.86 93.789 203.59l89.274 197.679 64.652 0.931c72.099 1.071 73.449 1.257 99.514 13.684 36.259 17.268 66.234 48.873 79.313 83.735 9.868 26.252 9.681 22.761 9.123 209.687-0.559 193.35 0.419 178.781-14.196 209.315-19.27 40.262-55.575 70.191-100.585 82.944l-13.638 3.863-351.604 0.279c-286.441 0.233-353.792-0.14-363.52-2.001zM694.598 639.767v-228.073l-84.759-187.951c-75.88-178.343-104.731-240.633-133.917-302.736l47.855 113.296c-2.327-2.653-25.879 10.007-36.399 19.596-11.962 10.889-21.206 24.554-26.733 39.988l-0.216 0.692c-3.677 10.985-3.77 13.777-4.701 119.622-0.884 106.961-0.931 108.451-4.608 115.2-5.086 8.724-12.218 15.752-20.762 20.57l-0.276 0.143c-5.632 2.979-13.824 3.212-152.762 4.003l-146.758 0.884-8.518 3.91c-17.268 7.913-28.439 24.436-28.486 41.937 0 8.657 63.721 421.143 66.932 433.012 3.956 14.848 18.758 28.020 35.514 31.604 7.308 1.583 69.26 2.141 254.138 2.234l244.457 0.14v-228.073zM890.88 862.999c12.893-5.12 23.971-13.684 30.487-23.459 10.845-16.431 10.473-9.681 10.473-181.76 0-152.297-0.093-156.812-3.444-167.703-4.608-14.848-16.291-27.881-32.070-35.654l-11.311-5.585-98.257-1.024v208.849c0 114.921 0.605 209.501 1.303 210.199s22.016 0.977 47.337 0.605c42.496-0.652 46.825-1.024 55.482-4.468z" />
<glyph unicode="&#xe91e;" glyph-name="circle-quater" d="M503.467 915.755c-12.501-2.56-22.955-10.752-29.611-23.125l-3.669-6.869v-448.853l3.669-6.869c4.651-8.704 11.477-15.531 20.181-20.181l6.869-3.669h448.853l6.869 3.669c8.747 4.693 15.573 11.52 20.096 20.181 3.243 6.144 3.584 9.344 3.243 30.763-2.603 166.229-100.224 323.755-248.789 401.365-64.981 33.92-128.981 50.901-203.819 54.059-2.677 0.167-5.805 0.263-8.956 0.263-5.26 0-10.458-0.266-15.582-0.785l0.645 0.053zM327.595 879.019c-9.429-3.456-45.568-21.845-58.795-29.909-93.12-57.535-163.605-144.038-199.567-246.76l-1.009-3.309c-23.68-69.547-30.848-151.467-19.413-222.592 26.539-165.76 135.467-302.165 290.816-364.16 83.243-33.237 180.48-41.301 270.165-22.357 134.865 29.394 245.872 113.72 310.382 227.812l1.213 2.332c14.763 26.539 24.576 49.707 25.472 60.075 0.853 10.368-4.907 24.96-12.8 32.384-15.232 14.336-42.923 14.379-58.283 0.128-2.219-2.091-10.155-16-17.621-30.933-22.315-44.587-42.88-73.429-75.563-105.941-17.365-17.323-47.275-41.387-65.664-52.864-58.168-36.907-129.010-58.816-204.969-58.816-57.49 0-112.049 12.55-161.086 35.060l2.407-0.99c-71.168 32-132.992 87.765-173.44 156.416-25.643 43.52-44.843 102.571-50.347 154.837-3.029 29.013-1.067 78.72 4.267 106.837 10.112 53.419 27.947 98.219 56.448 141.653 38.315 58.453 87.381 102.101 150.997 134.357 13.696 6.955 27.093 14.677 29.781 17.195 12.373 11.605 15.616 33.152 7.339 49.323-7.123 13.481-21.053 22.511-37.091 22.511-4.885 0-9.574-0.838-13.932-2.377l0.293 0.090zM590.208 824.107c125.696-24.704 234.709-117.632 281.088-239.573 9.984-26.283 16.299-51.328 22.272-88.32l0.896-5.547h-339.797v339.669l7.253-1.024c3.968-0.597 16.725-2.901 28.288-5.205z" />
<glyph unicode="&#xe91f;" glyph-name="clock-checked" d="M512 789.333c-188.513 0-341.333-152.82-341.333-341.333s152.82-341.333 341.333-341.333c23.565 0 42.667-19.102 42.667-42.667s-19.102-42.667-42.667-42.667c-235.642 0-426.667 191.027-426.667 426.667 0 235.642 191.025 426.667 426.667 426.667 235.639 0 426.667-191.025 426.667-426.667 0-23.565-19.102-42.667-42.667-42.667s-42.667 19.102-42.667 42.667c0 188.513-152.819 341.333-341.333 341.333zM1007.526 311.014c18.603-14.468 21.952-41.276 7.488-59.874l-199.113-256c-7.433-9.557-18.569-15.505-30.643-16.367-12.070-0.862-23.94 3.447-32.653 11.849l-99.554 96c-16.964 16.354-17.455 43.366-1.097 60.326 16.354 16.964 43.366 17.455 60.326 1.097l65.395-63.057 169.975 218.539c14.468 18.603 41.276 21.952 59.874 7.488zM554.667 704c0 23.564-19.102 42.667-42.667 42.667s-42.667-19.103-42.667-42.667v-256c0-11.315 4.497-22.17 12.497-30.17l128-128c16.661-16.661 43.678-16.661 60.339 0s16.661 43.678 0 60.339l-115.503 115.503v238.327z" />
<glyph unicode="&#xe920;" glyph-name="graph" horiz-adv-x="796" d="M392.249 959.147c-19.973-2.39-36.587-14.793-44.851-31.971l-0.148-0.342-4.096-8.647v-939.804l4.096-8.647c6.77-14.279 19.172-25.145 34.361-30.208 6.884-2.276 26.34-2.276 33.223 0 15.189 5.063 27.591 15.929 34.361 30.208l4.096 8.647v939.804l-4.096 8.647c-6.971 14.498-19.472 25.402-34.697 30.101l-0.404 0.107c-5.267 1.421-11.313 2.237-17.551 2.237-1.511 0-3.011-0.048-4.498-0.142l0.203 0.010zM730.453 617.472c-18.591-3.452-33.845-15.313-41.888-31.406l-0.153-0.338-4.153-8.704v-598.642l4.153-8.704c9.34-19.259 28.744-32.303 51.194-32.303 3.074 0 6.092 0.245 9.034 0.715l-0.324-0.043c12.224 1.742 22.872 7.466 30.814 15.794l0.020 0.021c8.43 8.049 14.2 18.818 15.897 30.895l0.032 0.28c1.82 12.8 1.82 572.7-0.057 585.387-2.325 16.168-11.414 29.843-24.254 38.272l-0.208 0.128c-8.76 5.868-19.538 9.365-31.134 9.365-3.168 0-6.276-0.261-9.302-0.763l0.329 0.045zM38.855 387.982c-19.844-7.047-34.414-24.253-37.565-45.198l-0.039-0.313c-1.707-11.662-1.593-345.543 0.114-357.433 1.764-12.117 6.827-22.13 15.929-31.175 7.961-8.349 18.609-14.073 30.553-15.782l0.281-0.033c2.618-0.428 5.635-0.673 8.71-0.673 22.45 0 41.854 13.044 51.047 31.966l0.148 0.337 4.153 8.704 0.341 182.5c0.284 136.875 0 184.036-1.138 188.53-5.8 18.627-19.961 33.088-37.979 39.187l-0.421 0.124c-4.668 1.063-10.028 1.673-15.531 1.673-6.614 0-13.022-0.88-19.113-2.53l0.511 0.118z" />
<glyph unicode="&#xe921;" glyph-name="arrow-right" d="M496.512 957.696c-19.072-4.16-36.864-20.16-44.288-39.936-2.944-7.936-3.52-12.544-3.008-24.32 1.216-27.584-12.288-12.224 181.696-206.528 57.456-57.168 113.816-114.035 169.777-171.293l3.151-3.235c0-0.704-169.536-1.28-376.768-1.28l-376.704-0.064-9.728-3.968c-23.742-9.421-40.224-32.191-40.224-58.81 0-4.419 0.454-8.732 1.319-12.895l-0.071 0.409c4.213-21.551 18.962-38.904 38.551-46.699l0.425-0.149 9.728-3.968 376.704-0.064c207.232 0 376.768-0.576 376.768-1.28s-77.824-79.232-172.928-174.528c-193.984-194.304-180.48-178.944-181.696-206.528-0.155-1.588-0.243-3.433-0.243-5.299 0-13.887 4.898-26.63 13.061-36.595l-0.081 0.102c19.264-25.28 57.856-31.936 83.776-14.464 5.888 3.904 101.824 98.752 238.656 235.776 177.536 177.792 229.76 230.976 232.576 237.12 9.6 20.48 8.384 44.992-3.136 62.464-8.832 13.376-460.544 464.384-471.104 470.336-9.442 4.636-20.504 7.501-32.195 7.869l-0.125 0.003c-5.276-0.496-10.011-1.264-14.637-2.32l0.749 0.144z" />
<glyph unicode="&#xe922;" glyph-name="arrow-left" d="M496.512 957.696c-6.797-1.76-12.763-4.326-18.212-7.654l0.292 0.166c-11.84-7.68-465.088-461.76-470.592-471.488-4.69-8.781-7.444-19.206-7.444-30.274 0-12.619 3.581-24.402 9.781-34.388l-0.161 0.278c8.768-13.312 460.544-464.384 471.104-470.336 4.224-2.432 12.864-5.248 19.136-6.336 3.553-0.707 7.637-1.112 11.816-1.112 27.288 0 50.546 17.25 59.466 41.44l0.142 0.439c2.88 7.744 3.456 12.416 2.944 24.128-1.216 27.584 12.288 12.224-181.696 206.528-57.456 57.168-113.816 114.035-169.777 171.293l-3.151 3.235c0 0.64 170.304 1.408 378.432 1.664l378.496 0.448 9.856 4.608c5.44 2.56 13.504 8.384 18.112 13.12 11.447 11.443 18.527 27.254 18.527 44.719 0 26.642-16.477 49.436-39.797 58.747l-0.427 0.15-9.728 3.968-376.704 0.064c-207.232 0-376.768 0.576-376.768 1.28s77.824 79.232 172.928 174.528c193.984 194.304 180.48 178.944 181.696 206.528 0.512 11.776-0.064 16.384-3.008 24.32-7.534 19.926-24.162 34.865-44.681 39.909l-0.439 0.091c-4.485 1.245-9.636 1.961-14.953 1.961-5.404 0-10.636-0.739-15.599-2.122l0.408 0.097z" />
<glyph unicode="&#xe923;" glyph-name="arrow-down" d="M496.512 957.696c-18.944-4.096-36.864-20.16-44.096-39.552l-3.584-9.472v-376.256c0-206.912-0.512-376.256-1.216-376.256s-79.232 77.824-174.528 172.928c-194.304 193.984-178.944 180.48-206.528 181.696-1.588 0.155-3.433 0.243-5.299 0.243-13.887 0-26.63-4.898-36.595-13.061l0.102 0.081c-25.216-19.2-31.872-57.472-14.592-83.712 8.768-13.312 460.544-464.384 471.104-470.336 18.752-10.688 46.656-9.664 64.448 2.304 5.888 3.904 101.824 98.752 238.656 235.776 177.536 177.792 229.76 230.976 232.576 237.12 4.178 8.284 6.624 18.056 6.624 28.4 0 27.491-17.282 50.946-41.574 60.094l-0.442 0.146c-7.744 2.88-12.416 3.456-24.128 2.944-27.584-1.216-12.224 12.288-206.528-181.696-57.168-57.456-114.035-113.816-171.293-169.777l-3.235-3.151c-0.704 0-1.216 169.344-1.216 376.256v376.256l-3.584 9.472c-7.56 19.751-24.103 34.542-44.491 39.526l-0.437 0.090c-4.485 1.245-9.636 1.961-14.953 1.961-5.404 0-10.636-0.739-15.599-2.122l0.408 0.097z" />
<glyph unicode="&#xe924;" glyph-name="arrow-up" d="M496.512 957.696c-6.797-1.76-12.763-4.326-18.212-7.654l0.292 0.166c-11.84-7.68-465.088-461.76-470.592-471.488-2.828-5.532-5.028-11.949-6.27-18.702l-0.066-0.434c-0.719-3.578-1.13-7.691-1.13-11.9 0-27.271 17.264-50.51 41.459-59.383l0.439-0.141c7.744-2.88 12.416-3.456 24.128-2.944 27.584 1.216 12.224-12.288 206.528 181.696 57.168 57.456 114.035 113.816 171.293 169.777l3.235 3.151c0.704 0 1.28-169.536 1.28-376.768l0.064-376.704 3.968-9.728c11.968-29.056 39.616-44.224 71.040-38.912 21.653 4.095 39.119 18.849 46.955 38.488l0.149 0.424 3.968 9.728 0.064 376.704c0 207.232 0.576 376.768 1.28 376.768s79.232-77.824 174.528-172.928c196.672-196.416 179.136-181.184 209.088-181.184 14.976 0 18.24 0.512 26.944 4.608 11.392 5.376 24.832 18.368 30.080 29.184 4.029 8.226 6.385 17.902 6.385 28.128 0 12.583-3.567 24.333-9.745 34.294l0.161-0.278c-8.832 13.376-460.544 464.384-471.104 470.336-9.442 4.636-20.504 7.501-32.195 7.869l-0.125 0.003c-5.276-0.496-10.011-1.264-14.637-2.32l0.749 0.144z" />
<glyph unicode="&#xe925;" glyph-name="user-search" d="M434.33 958.208c-100.457-10.931-182.74-78.453-214.948-169.622l-0.553-1.795c-8.495-24.707-13.4-53.176-13.4-82.79s4.905-58.083 13.947-84.638l-0.547 1.848c26.516-74.798 84.383-132.665 157.376-158.621l1.805-0.56c24.707-8.495 53.176-13.4 82.79-13.4s58.083 4.905 84.638 13.947l-1.848-0.547c74.798 26.516 132.665 84.383 158.621 157.376l0.56 1.805c21.197 62.157 16.896 136.192-11.162 192.87-12.83 26.617-29.137 49.389-48.688 68.912l-0.003 0.003c-54.938 56.064-129.638 82.995-208.589 75.213zM502.528 851.661c51.264-15.18 90.834-54.699 105.804-104.832l0.282-1.101c4.25-13.824 4.659-17.766 4.659-41.728s-0.41-27.904-4.659-41.83c-15.468-51.090-54.894-90.516-104.872-105.694l-1.112-0.29c-13.926-4.25-17.869-4.659-41.83-4.659s-27.904 0.41-41.728 4.659c-51.237 15.312-90.774 54.849-105.802 104.981l-0.285 1.106c-4.25 13.824-4.659 17.766-4.659 41.728s0.41 27.904 4.659 41.728c17.101 56.883 64.155 99.547 122.388 110.040l0.953 0.142c4.557 0.819 17.869 1.229 29.594 0.87 16.742-0.461 24.627-1.587 36.608-5.12zM742.912 395.059c-60.323-7.877-111.641-40.969-143.773-88.171l-0.457-0.712c-14.637-21.089-25.538-45.958-31.108-72.78l-0.227-1.307c-4.096-18.79-4.096-61.389 0-80.179 17.715-82.176 78.387-142.848 160.563-160.563 18.79-4.096 61.389-4.096 80.179 0 19.786 4.286 37.265 10.622 53.556 18.952l-1.23-0.571 10.854 5.837 35.942-35.482c41.267-40.704 44.851-43.059 65.587-43.059 15.565 0 25.446 3.942 35.84 14.336s14.336 20.275 14.336 35.84c0 20.736-2.355 24.32-43.059 65.587l-35.482 35.942 5.837 10.854c7.168 13.312 14.49 34.099 18.381 52.326 4.096 18.79 4.096 61.389 0 80.179-17.715 81.971-79.514 143.872-160.102 160.307-13.091 2.277-28.166 3.579-43.546 3.579-7.777 0-15.475-0.333-23.083-0.985l0.99 0.068zM229.53 343.808c-99.379-10.086-183.91-78.029-216.371-173.978-11.008-32.614-13.517-59.29-12.851-136.55 0.512-56.064 0.717-59.238 4.198-66.816 4.71-10.189 15.872-21.299 25.958-25.856 11.008-4.966 30.464-4.966 41.472 0 10.086 4.557 21.248 15.667 25.958 25.856 3.482 7.578 3.686 11.008 4.608 78.746l0.973 70.861 4.71 15.258c15.323 51.243 54.853 90.79 104.98 105.852l1.107 0.286 15.258 4.71 96.461 0.922c94.003 0.922 96.614 1.024 104.346 4.608 10.189 4.71 21.299 15.872 25.856 25.958 2.358 6.162 3.724 13.29 3.724 20.736s-1.366 14.574-3.86 21.146l0.136-0.41c-5.753 11.234-14.65 20.165-25.528 25.804l-0.328 0.155c-7.782 3.584-9.728 3.635-97.536 3.891-49.306 0.102-95.744-0.41-103.27-1.178zM790.374 291.942c19.302-4.096 33.024-11.981 49.306-28.262 10.752-10.701 16.026-17.613 20.224-26.266 13.824-28.774 13.824-62.054 0-90.829-7.885-16.333-30.157-38.605-46.49-46.49-28.774-13.824-62.054-13.824-90.829 0-16.333 7.885-38.605 30.157-46.49 46.49-6.541 13.275-10.367 28.898-10.367 45.414s3.826 32.14 10.641 46.031l-0.273-0.616c7.885 16.384 30.157 38.605 46.592 46.49 13.338 6.546 29.029 10.374 45.614 10.374 7.818 0 15.438-0.851 22.771-2.464l-0.699 0.129z" />
<glyph unicode="&#xe926;" glyph-name="no" d="M486.4 952.934c-183.228-8.090-350.874-119.381-430.268-285.628-33.911-71.014-49.374-139.691-49.391-219.307 0-78.865 15.394-147.78 48.674-217.856 75.554-159.078 228.113-266.325 406.238-285.594 36.42-3.925 94.020-2.048 133.12 4.369 212.565 34.901 381.406 203.742 416.307 416.307 8.567 52.258 8.567 113.289 0 165.547-36.983 225.28-223.471 399.411-450.441 420.625-25.907 2.406-45.261 2.816-74.24 1.536zM567.467 848.316c65.485-9.438 124.416-32.7 177.459-70.076l14.524-10.24-567.228-567.245-7.219 9.694c-54.306 73.114-82.995 172.425-76.117 263.578 6.281 83.405 31.778 152.047 80.964 218.027 15.531 20.838 57.259 62.566 78.097 78.097 62.703 46.746 130.731 73.028 208.503 80.572 20.685 1.997 69.291 0.717 91.017-2.406zM858.47 656.213c19.439-32.495 36.642-73.591 45.005-107.52 29.935-121.566 5.666-243.951-67.942-342.784-17.408-23.364-58.129-64.068-81.562-81.545-66.604-50.251-150.769-80.483-241.995-80.483-87.274 0-168.086 27.67-234.141 74.716l1.239-0.838-14.524 10.24 567.279 567.313 8.977-12.305c5.27-7.245 11.098-15.984 16.605-24.942l1.059-1.852z" />
<glyph unicode="&#xe927;" glyph-name="file-def" horiz-adv-x="922" d="M118.528 952.149c-10.957-1.843-28.945-7.97-40.636-13.875-41.165-20.719-69.734-61.15-76.237-107.861-2.321-16.794-2.321-748.544 0-765.338 4.71-33.792 20.241-63.283 45.705-86.75 18.159-16.742 41.728-28.604 67.123-33.792 13.875-2.833 21.794-2.935 186.931-2.543l172.442 0.41 7.987 3.618c17.169 7.765 29.645 27.238 29.645 46.302s-12.476 38.537-29.645 46.302l-7.987 3.618-170.496 0.768c-159.881 0.717-170.871 0.939-176.64 3.533-8.073 3.635-17.323 12.612-20.89 20.275-2.748 5.939-2.85 18.859-2.85 380.928s0.102 374.989 2.85 380.928c3.567 7.663 12.817 16.64 20.89 20.275 5.751 2.577 15.138 2.799 144.742 3.191l138.581 0.427 0.427-140.971 0.41-140.971 3.755-7.646c5.035-10.223 15.241-20.122 25.89-25.122l8.755-4.096 280.32-0.853v-3.413c0-1.877 1.98-7.595 4.386-12.698 14.473-30.566 55.825-38.161 79.94-14.66 13.756 13.38 17.033 24.781 17.033 59.273 0 23.996-1.929 37.086-6.844 46.643-2.662 5.137-49.852 53.231-169.284 172.561-136.636 136.516-166.963 166.076-173.295 168.96l-7.68 3.516-173.568 0.222c-96.273 0.119-177.22-0.393-181.76-1.161zM584.499 706.953l70.11-71.049h-143.121v71.561c0 44.288 0.546 71.356 1.451 71.031 0.802-0.273 33.007-32.478 71.561-71.543zM692.241 426.325c-5.188-2.133-13.244-7.475-19.2-12.749-15.923-14.097-28.877-22.903-45.585-30.993-25.429-12.322-52.412-20.087-69.751-20.087-9.762 0-22.391-2.662-29.406-6.212-8.209-4.147-18.347-15.036-22.818-24.508-3.789-8.055-3.977-9.591-3.823-33.024 0.495-75.383 23.927-153.207 63.403-210.432 33.024-47.889 74.291-82.586 113.476-95.437 11.998-3.925 15.565-4.403 33.399-4.403 18.466 0 20.975 0.358 33.365 4.796 60.894 21.777 119.74 88.354 150.033 169.762 14.387 38.656 21.811 74.274 25.003 119.945 2.611 37.274-0.205 49.903-14.285 63.966-3.601 3.618-9.045 7.851-12.066 9.387-6.383 3.26-20.685 6.161-30.327 6.161-16.367 0-44.186 8.107-68.779 20.053-16.742 8.124-29.833 17.033-46.507 31.625-18.261 15.974-36.983 20.036-56.132 12.151zM721.493 306.62c22.067-14.251 63.795-32.239 87.637-37.786l8.107-1.894-0.956-5.598c-5.888-34.509-12.612-57.515-23.791-81.289-8.465-18.005-23.211-41.114-35.379-55.433-9.711-11.435-27.767-26.368-38.315-31.71-6.912-3.516-7.765-3.618-12.749-1.536-9.284 3.891-30.14 20.787-40.209 32.563-30.498 35.772-49.852 78.387-58.351 128.597-1.28 7.526-2.15 13.824-1.929 13.995s6.724 2.116 14.455 4.301c26.982 7.663 60.945 22.801 81.169 36.164 5.069 3.362 9.37 6.161 9.557 6.229s5.018-2.901 10.752-6.605z" />
<glyph unicode="&#xe928;" d="M967.112 448.002c0-251.351-203.761-455.112-455.112-455.112s-455.111 203.761-455.111 455.112c0 251.351 203.76 455.111 455.111 455.111s455.112-203.76 455.112-455.111z" />
<glyph unicode="&#xe929;" d="M648.533 630.045h-180.149c-24.643 0-48.276-9.59-65.703-26.66-17.425-17.068-27.215-40.221-27.215-64.362s9.789-47.292 27.215-64.362c17.427-17.070 41.061-26.66 65.703-26.66h87.229c24.644 0 48.278-9.59 65.705-26.66 17.425-17.070 27.215-40.223 27.215-64.364 0-24.139-9.789-47.292-27.215-64.362s-41.061-26.66-65.705-26.66h-180.147z" />
<glyph unicode="&#xe92a;" d="M648.533 578.845c28.276 0 51.2 22.924 51.2 51.2 0 28.278-22.924 51.2-51.2 51.2v-102.4zM468.384 448.002v0zM555.614 448.002v0zM555.614 265.957v0zM375.467 317.157c-28.278 0-51.2-22.922-51.2-51.2 0-28.276 22.922-51.2 51.2-51.2v102.4zM460.8 630.045v-51.2h102.4v51.2h-102.4zM563.2 721.068c0 28.276-22.922 51.2-51.2 51.2s-51.2-22.924-51.2-51.2h102.4zM563.2 265.957v51.2h-102.4v-51.2h102.4zM460.8 174.935c0-28.278 22.922-51.2 51.2-51.2s51.2 22.922 51.2 51.2h-102.4zM967.112 448.002h-51.2c0-223.075-180.838-403.912-403.912-403.912v-102.4c279.627 0 506.312 226.683 506.312 506.312h-51.2zM512-7.11v51.2c-223.073 0-403.911 180.837-403.911 403.912h-102.4c0-279.629 226.682-506.312 506.311-506.312v51.2zM56.889 448.002h51.2c0 223.073 180.838 403.911 403.911 403.911v102.4c-279.629 0-506.311-226.684-506.311-506.311h51.2zM512 903.113v-51.2c223.073 0 403.912-180.838 403.912-403.911h102.4c0 279.627-226.685 506.311-506.312 506.311v-51.2zM468.384 630.045v51.2c-37.885 0-74.426-14.732-101.531-41.284l71.658-73.149c7.747 7.588 18.473 12.034 29.873 12.034v51.2zM402.681 603.385l-35.828 36.576c-27.141-26.586-42.586-62.874-42.586-100.937h102.4c0 10.218 4.134 20.234 11.844 27.788l-35.83 36.574zM375.467 539.023h-51.2c0-38.064 15.445-74.351 42.586-100.937l71.658 73.151c-7.711 7.552-11.844 17.57-11.844 27.786h-51.2zM402.681 474.662l-35.828-36.576c27.105-26.552 63.647-41.284 101.531-41.284v102.4c-11.401 0-22.127 4.446-29.873 12.035l-35.83-36.576zM468.384 448.002v-51.2h87.229v102.4h-87.229v-51.2zM555.614 448.002v-51.2c11.402 0 22.129-4.448 29.875-12.035l71.658 73.151c-27.105 26.551-63.647 41.284-101.533 41.284v-51.2zM621.319 421.342l-35.83-36.576c7.711-7.554 11.844-17.57 11.844-27.788h102.4c0 38.065-15.445 74.351-42.586 100.939l-35.828-36.576zM648.533 356.978h-51.2c0-10.216-4.134-20.233-11.844-27.786l71.658-73.151c27.141 26.586 42.586 62.874 42.586 100.937h-51.2zM621.319 292.617l-35.83 36.576c-7.747-7.588-18.473-12.035-29.875-12.035v-102.4c37.886 0 74.428 14.734 101.533 41.284l-35.828 36.576zM555.614 265.957v51.2h-180.147v-102.4h180.147v51.2zM512 630.045h51.2v91.023h-102.4v-91.023h51.2zM512 265.957h-51.2v-91.022h102.4v91.022h-51.2zM648.533 630.045v51.2h-180.149v-102.4h180.149v51.2z" />
<glyph unicode="&#xe92b;" glyph-name="clipboard-text" horiz-adv-x="838" d="M259.025 957.766c-36.026-7.401-68.468-42.496-71.447-77.219-1.303-15.407 3.072-13.731-37.097-14.476-29.882-0.559-36.771-1.117-45.056-3.491-12.361-3.22-23.184-7.648-33.227-13.297l0.692 0.358c-33.606-18.153-57.67-49.012-68.515-87.924l-3.677-13.265-0.372-339.735c-0.326-292.911-0.093-341.597 1.676-353.42 8.347-52.512 44.79-94.819 93.173-111.46l0.988-0.296c21.318-7.215 14.010-7.075 322.746-7.075 243.572 0 289.001 0.326 300.404 2.048 52.378 8.462 94.544 44.873 111.135 93.173l0.295 0.989c7.354 21.737 7.168 9.402 6.749 376.087l-0.372 339.689-3.677 13.265c-14.289 51.2-48.919 85.83-101.050 100.864-8.285 2.374-15.174 2.932-45.056 3.491-40.169 0.745-35.793-0.931-37.097 14.476-3.025 35.281-35.328 69.772-72.425 77.265-15.453 3.119-303.523 3.072-318.79-0.047zM558.545 820.364v-46.080h-279.273v92.16h279.273v-46.080zM186.275 772.096c0.465-1.257 0.838-4.748 0.838-7.866 0-12.567 7.494-32.209 17.455-45.801 10.705-14.615 28.020-27.089 45.987-33.187l11.264-3.817h314.182l11.264 3.817c24.216 8.319 43.572 25.436 54.628 47.442l0.249 0.547c5.26 10.566 7.401 18.385 8.425 30.58l0.838 9.775h28.625c28.439 0 28.672-0.047 37.004-3.91 10.705-5.027 20.573-15.36 24.39-25.6l2.839-7.68-0.326-336.756-0.372-336.803-3.258-6.656c-5.199-9.435-12.767-17.003-21.917-22.058l-0.285-0.144-6.656-3.258h-585.076l-6.656 3.258c-9.435 5.199-17.003 12.767-22.058 21.917l-0.144 0.285-3.258 6.656-0.372 336.477c-0.372 375.575-1.257 343.087 9.542 356.771 6.051 7.633 15.313 13.684 24.948 16.291 3.863 1.024 16.337 1.769 31.697 1.815 21.876 0.093 25.46-0.186 26.205-2.095zM222.022 493.103c-18.070-4.319-31.79-18.962-34.689-37.21l-0.034-0.259c-3.351-25.833 12.195-48.128 36.771-52.643 11.543-2.141 378.135-2.141 389.679 0 24.529 4.515 40.076 26.717 36.817 52.55-3.090 19.213-17.772 34.273-36.53 37.888l-0.288 0.046c-12.148 2.281-381.207 1.908-391.727-0.372zM217.647 305.99c-17.848-6.215-30.481-22.774-30.766-42.322v-0.034c-0.093-12.195 1.862-19.223 7.587-27.276 5.772-8.099 13.265-14.15 21.69-17.408 6.144-2.327 13.591-2.513 110.592-2.513h104.029l7.261 3.305c9.914 4.468 20.108 15.5 24.064 26.065 1.804 4.881 2.848 10.518 2.848 16.399 0 7.157-1.546 13.953-4.322 20.072l0.124-0.305c-4.887 9.775-15.407 19.642-24.576 23.087-7.401 2.746-10.38 2.839-110.545 2.793-80.477-0.047-104.029-0.465-107.985-1.862z" />
<glyph unicode="&#xe92c;" glyph-name="close-octagon" d="M304.454 956.881c-5.866-2.205-10.939-5.015-15.521-8.447l0.161 0.115c-3.631-2.979-68.561-67.444-144.244-143.313-122.042-122.321-137.961-138.892-140.8-146.479-3.072-8.145-3.212-17.129-3.212-211.596v-203.124l3.91-8.518c3.212-6.982 29.324-33.978 145.082-149.69 115.712-115.759 142.708-141.871 149.69-145.082l8.518-3.91h407.924l8.518 3.91c6.982 3.212 33.978 29.324 149.69 145.082 115.759 115.712 141.871 142.708 145.082 149.69l3.91 8.518v407.924l-3.91 8.518c-3.212 6.982-29.324 33.978-145.082 149.69-115.712 115.759-142.708 141.871-149.69 145.082l-8.518 3.91-201.402 0.372c-188.835 0.372-201.914 0.186-210.106-2.653zM808.541 744.541l123.299-123.345v-346.391l-246.644-246.644h-346.391l-246.644 246.644v346.391l246.644 246.644h346.391l123.345-123.299zM357.935 631.668c-20.806-7.727-33.373-26.81-31.604-48.128 0.419-4.794 2.467-12.102 4.561-16.244 2.513-4.841 23.505-27.183 59.578-63.395l55.761-55.855-57.344-57.623c-53.108-53.341-57.577-58.321-60.369-66.839-7.215-22.249 2.56-45.801 23.692-56.925 10.24-5.399 29.743-5.353 40.308 0.14 5.027 2.607 26.996 23.226 63.581 59.718l55.901 55.761 55.901-55.761c36.585-36.492 58.554-57.111 63.581-59.718 10.566-5.492 30.068-5.539 40.308-0.14 8.983 4.748 16.803 12.567 21.551 21.551 5.399 10.24 5.353 29.743-0.14 40.308-2.607 5.027-23.226 26.996-59.718 63.581l-55.761 55.901 55.761 55.901c36.492 36.585 57.111 58.554 59.718 63.581 5.492 10.566 5.539 30.068 0.14 40.308-7.972 15.557-23.896 26.019-42.265 26.019-5.241 0-10.282-0.852-14.994-2.424l0.334 0.097c-8.518-2.793-13.498-7.261-66.839-60.369l-57.623-57.344-55.855 55.761c-36.724 36.585-58.508 57.065-63.535 59.625-9.309 4.748-25.414 5.911-34.63 2.513z" />
<glyph unicode="&#xe92d;" glyph-name="Vector-45" d="M58.002 958.098c-36.645-7.095-62.245-44.178-56.613-81.993 3.73-25.234-8.265-11.995 209.189-229.669l198.144-198.437-198.144-198.437c-217.454-217.673-205.458-204.434-209.189-229.669-0.527-3.283-0.828-7.067-0.828-10.922 0-39.992 32.42-72.411 72.411-72.411 3.855 0 7.639 0.301 11.331 0.881l-0.409-0.053c25.234 3.73 11.995-8.265 229.742 209.189l198.363 198.144 198.437-198.144c217.673-217.454 204.434-205.458 229.669-209.189 3.283-0.527 7.067-0.828 10.922-0.828 39.992 0 72.411 32.42 72.411 72.411 0 3.855-0.301 7.639-0.881 11.331l0.053-0.409c-3.73 25.234 8.265 11.995-209.189 229.669l-198.144 198.437 198.144 198.363c217.454 217.746 205.458 204.507 209.189 229.742 0.527 3.283 0.828 7.067 0.828 10.922 0 39.992-32.42 72.411-72.411 72.411-3.855 0-7.639-0.301-11.331-0.881l0.409 0.053c-25.234-3.73-11.995 8.265-229.669-209.189l-198.437-198.144-198.437 198.144c-215.333 215.113-204.434 205.093-227.474 208.896-4.070 0.894-8.746 1.406-13.54 1.406-5.157 0-10.176-0.592-14.991-1.713l0.445 0.087z" />
<glyph unicode="&#xe92e;" glyph-name="pencil" d="M808.090 958.208c-16.384-2.202-39.578-9.011-54.989-16.128-32.819-15.206-15.616 1.28-393.37-376.218-293.018-292.813-351.744-352.256-354.97-359.373l-3.891-8.499v-111.821c0-110.746 0-111.821 3.635-119.706 4.71-10.138 15.821-21.248 25.958-25.958 7.885-3.635 8.96-3.635 119.706-3.635h111.821l8.499 3.891c7.117 3.226 66.56 61.952 359.373 354.97 377.395 377.651 361.011 360.55 376.166 393.267 11.037 23.442 17.479 50.916 17.479 79.895 0 59.977-27.596 113.508-70.783 148.589l-0.353 0.278c-16.465 12.626-35.372 23.294-55.692 31.117l-1.549 0.524c-24.986 8.448-61.901 12.186-87.040 8.806zM852.941 855.040c32.563-7.68 58.419-33.536 66.099-66.099 4.864-20.634 2.714-38.195-7.168-59.341-5.939-12.646-9.472-16.282-344.986-352l-338.995-339.2h-125.491v125.491l339.2 338.944c319.693 319.488 339.866 339.302 350.771 344.576 20.787 10.035 39.987 12.442 60.57 7.629z" />
<glyph unicode="&#xe92f;" glyph-name="pencil-write" d="M809.83 958.054c-16.486-2.048-40.192-8.96-55.45-16.128-33.126-15.616-15.462 1.28-393.779-376.832-293.734-293.581-352.614-353.178-355.84-360.294l-3.891-8.55v-110.899c0-109.926 0-111.002 3.635-118.886 4.71-10.138 15.821-21.248 25.958-25.958 7.885-3.635 8.96-3.635 118.886-3.635h110.899l8.55 3.891c7.117 3.226 66.714 62.106 360.294 355.84 378.112 378.317 361.216 360.704 376.832 393.779 11.053 23.531 17.503 51.103 17.503 80.182 0 6.598-0.332 13.118-0.981 19.545l0.066-0.809c-9.787 96.051-90.245 170.366-188.060 170.366-8.683 0-17.228-0.586-25.6-1.719l0.976 0.108zM851.968 855.706c39.878-8.771 69.278-43.806 69.278-85.707 0-7.010-0.823-13.827-2.377-20.361l0.12 0.596c-5.018-21.248-10.496-28.621-51.968-70.605l-38.451-38.912-123.802 124.006 38.861 38.4c30.003 29.594 41.267 39.629 49.357 43.878 12.098 6.539 26.482 10.382 41.763 10.382 6.092 0 12.042-0.611 17.791-1.775l-0.572 0.097zM491.11 303.36l-264.96-264.96h-123.75v123.75l529.92 529.92 123.75-123.75-264.96-264.96zM523.11 36.506c-17.050-3.994-33.178-21.453-36.506-39.526-4.966-26.931 12.39-53.811 38.195-59.238 5.786-1.229 80.896-1.69 234.65-1.331l226.15 0.461 7.936 3.635c10.189 4.71 21.299 15.872 25.856 25.958 2.358 6.162 3.724 13.29 3.724 20.736s-1.366 14.574-3.86 21.146l0.136-0.41c-5.753 11.234-14.65 20.165-25.528 25.804l-0.328 0.155-7.936 3.635-227.84 0.307c-136.499 0.154-230.554-0.41-234.65-1.331z" />
<glyph unicode="&#xe930;" glyph-name="edu" horiz-adv-x="1252" d="M610.133 957.156c-4.608-1.536-138.923-68.096-298.553-147.968-318.862-159.516-300.544-149.22-308.11-172.772-6.77-20.878-2.56-39.538 12.743-56.149l9.842-10.695 200.249-80.213 2.162-352.256 4.892-14.62c2.731-8.021 7.282-19.285 10.183-25.031 39.993-79.246 148.252-136.988 291.1-155.307 46.82-6.030 135.452-6.030 182.272 0 142.791 18.318 251.108 76.117 291.1 155.307 2.901 5.746 7.452 17.010 10.183 25.031l4.892 14.62 2.162 352.256 56.263 22.585c30.948 12.402 56.491 22.528 56.832 22.528 0.284 0 0.569-86.585 0.626-192.455 0.057-188.985 0.114-192.569 4.267-201.785 9.045-19.911 25.657-31.289 48.128-32.882 11.605-0.853 15.644-0.171 25.031 4.096 12.971 5.973 22.983 15.246 29.525 27.477l4.608 8.59 0.569 238.706c0.626 266.581 1.365 252.245-13.881 269.426-7.452 8.363-34.475 22.3-301.966 155.876-319.716 159.63-304.128 152.69-325.12 145.636zM842.695 731.705l213.845-107.008-7.339-3.015c-3.982-1.707-100.921-40.448-215.324-86.187l-208.1-83.172-208.043 83.172c-114.46 45.739-211.399 84.48-215.381 86.187l-7.339 3.015 213.845 107.008c117.589 58.88 215.211 107.065 216.917 107.065s99.328-48.185 216.917-107.065zM478.72 388.267c131.015-52.622 131.47-52.793 147.058-52.793s16.043 0.171 147.058 52.793l134.030 53.817c2.048 0.853 2.617-28.615 2.617-143.189 0-142.222-0.057-144.327-4.38-152.804-21.447-41.984-108.772-80.441-210.261-92.558-34.304-4.096-103.822-4.096-138.126 0-101.49 12.117-188.814 50.574-210.261 92.558-4.324 8.476-4.38 10.581-4.38 152.804 0 114.574 0.569 144.043 2.617 143.189l134.030-53.817z" />
<glyph unicode="&#xe931;" glyph-name="search-2" d="M421.069 958.31c-93.654-8.62-177.746-43.773-246.292-97.778l0.993 0.754c-18.688-14.387-62.669-58.368-77.056-77.056-47.994-60.838-81.362-135.352-93.586-216.785l-0.315-2.555c-5.325-34.304-5.325-97.075 0-131.379 12.546-83.988 45.913-158.5 94.652-220.329l-0.751 0.988c14.234-18.483 58.214-62.413 77.056-77.005 60.829-48.027 135.345-81.415 216.788-93.637l2.553-0.315c19.661-3.072 31.283-3.686 65.69-3.686 46.285 0 70.707 2.714 110.080 12.39 59.955 14.746 124.774 45.67 168.858 80.64l8.397 6.656 98.253-97.946c109.363-109.107 103.731-104.448 127.283-104.346 0.535-0.023 1.162-0.036 1.793-0.036 13.093 0 24.887 5.559 33.151 14.446l0.026 0.028c8.915 8.29 14.474 20.084 14.474 33.177 0 0.63-0.013 1.258-0.038 1.882l0.003-0.089c0.102 23.552 4.762 17.92-104.346 127.283l-97.946 98.253 6.656 8.397c9.933 12.544 25.805 36.966 36.557 56.218 25.458 45.366 43.979 98.266 52.468 154.456l0.32 2.574c5.325 34.304 5.325 97.075 0 131.379-12.554 83.992-45.939 158.505-94.701 220.325l0.749-0.985c-14.438 18.688-58.317 62.566-77.005 77.005-60.589 47.856-134.803 81.145-215.917 93.379l-2.553 0.317c-26.163 3.942-82.227 5.734-106.291 3.379zM520.55 852.685c55.142-9.677 104.448-30.566 152.166-64.358 19.149-13.568 64.41-59.034 77.978-78.336 30.962-42.638 53.32-93.566 63.401-148.779l0.343-2.261c5.222-28.467 5.222-91.034 0-119.501-10.48-57.468-32.83-108.385-64.49-152.122l0.746 1.082c-14.131-20.122-58.982-64.973-79.104-79.104-42.655-30.914-93.572-53.264-148.764-63.397l-2.276-0.347c-28.467-5.222-91.034-5.222-119.501 0-57.474 10.424-108.402 32.782-152.111 64.484l1.071-0.74c-19.302 13.568-64.768 58.829-78.336 77.978-31.373 42.915-54.006 94.233-64.169 149.904l-0.343 2.262c-4.966 27.136-5.376 87.603-0.768 114.995 10.417 62.741 35.466 118.293 71.536 164.883l-0.624-0.838c10.752 14.234 42.854 46.95 58.061 59.238 55.501 44.698 120.576 71.168 193.843 78.848 17.357 1.792 72.294-0.512 91.341-3.891zM446.618 752.742c-17.748-5.437-31.202-19.757-35.312-37.645l-0.067-0.345c-0.809-3.347-1.272-7.189-1.272-11.14 0-13.902 5.741-26.462 14.982-35.44l0.012-0.011c10.547-10.547 18.944-13.568 42.65-15.514 35.533-2.867 64.461-13.926 89.907-34.458 33.382-26.829 53.248-66.15 56.678-112.077 1.741-23.347 4.915-32.102 15.565-42.752 28.262-28.262 77.312-13.824 85.402 25.139 2.355 11.213 0.102 43.418-4.454 65.331-17.869 85.197-83.558 158.822-167.117 187.341-17.155 6.047-37.098 10.417-57.766 12.27l-0.961 0.069c-21.248 2.099-28.262 1.946-38.246-0.768z" />
<glyph unicode="&#xe932;" glyph-name="check-circle" d="M466.758 958.185c-141.871-13.312-271.593-83.828-357.841-194.607-67.669-86.055-108.528-195.971-108.528-315.43 0-74.792 16.016-145.843 44.807-209.911l-1.302 3.241c69.906-155.509 210.879-268.161 380.402-297.365l3.039-0.433c93.463-15.732 193.164-4.422 280.948 31.884 113.23 47.96 203.412 132.003 257.963 237.461l1.342 2.853c40.96 81.129 57.809 157.51 56.134 254.324-0.559 33.14-0.605 33.28-5.585 42.356-8.89 16.012-22.481 24.017-41.053 24.064-16.663 0.093-29.836-7.54-39.796-22.9-4.375-6.749-4.422-7.494-5.725-50.362-1.443-47.29-3.119-66.327-8.471-93.882-17.2-88.53-60.52-164.945-121.498-222.976l-0.172-0.163c-66.793-64.186-148.201-102.586-241.617-114.083-42.729-5.213-105.379-1.443-145.827 8.844-112.919 28.719-204.893 97.047-263.028 195.305-36.128 60.76-57.482 133.964-57.482 212.156 0 24.213 2.048 47.949 5.979 71.042l-0.349-2.482c23.238 135.234 108.618 246.592 225.107 305.172l2.407 1.097c60.416 29.603 118.132 43.148 184.553 43.241 58.415 0.093 102.307-8.611 165.516-32.954 16.431-6.284 19.968-7.075 28.486-6.33 11.497 1.071 25.553 8.145 31.418 15.779 6.655 7.969 10.696 18.323 10.696 29.62 0 1.223-0.047 2.434-0.14 3.633l0.010-0.159c-1.35 18.525-10.1 31.092-27.788 39.889-29.975 14.941-90.065 32.209-134.842 38.819-27.695 4.096-90.252 5.818-117.76 3.258zM963.491 864.908c-1.815-0.465-6.191-2.7-9.728-4.934s-104.355-102.167-224.023-222.115l-217.553-218.019-57.67 57.391c-65.117 64.745-64.233 64.093-86.016 62.511-10.519-0.745-13.359-1.722-21.737-7.447-12.753-8.844-20.806-23.505-20.806-38.074 0-19.456 2.048-21.969 84.015-103.657 49.338-49.152 76.428-74.938 81.548-77.591 11.729-6.051 30.255-5.725 41.937 0.745 12.195 6.749 479.93 474.81 485.562 485.841 5.492 10.752 5.632 30.301 0.326 40.308-9.495 17.967-22.9 26.391-41.332 26.065-0.070 0-0.152 0-0.234 0-5.041 0-9.995-0.372-14.835-1.091l0.547 0.067z" />
<glyph unicode="&#xe933;" glyph-name="filter" d="M35.002 911.872c-8.644-2.271-15.998-6.909-21.558-13.174l-0.039-0.045c-9.775-10.287-12.335-16.756-12.474-31.279-0.047-11.217 0.559-13.917 5.027-21.737 2.839-4.887 86.156-104.634 185.204-221.556l180.038-212.666 0.838-150.481 0.884-150.481 5.027-9.076c2.793-5.027 7.354-11.078 10.193-13.452 2.793-2.374 49.711-26.531 104.169-53.713 78.615-39.191 100.817-49.571 107.706-50.316 1.179-0.102 2.55-0.16 3.935-0.16 18.743 0 34.999 10.653 43.042 26.234l0.127 0.271 3.956 8.052 0.884 196.561 0.838 196.561 180.038 212.666c99.049 116.969 182.225 216.39 184.832 220.951 10.333 18.060 7.261 39.005-7.913 54.179-15.732 15.686 34.956 14.243-498.502 14.057-259.119-0.093-473.46-0.745-476.253-1.396zM875.52 819.945c0-0.745-69.492-83.503-154.438-183.901-84.992-100.399-156.207-185.996-158.301-190.231l-3.863-7.68-0.465-165.935c-0.233-91.322-0.838-165.981-1.257-165.981-0.465 0-21.132 10.147-45.987 22.528l-45.149 22.575-0.512 143.407-0.465 143.407-3.863 7.68c-2.095 4.236-73.309 89.833-158.255 190.185-84.992 100.399-154.484 183.156-154.484 183.901 0 0.791 163.561 1.396 363.52 1.396s363.52-0.605 363.52-1.35z" />
<glyph unicode="&#xe934;" glyph-name="trash" horiz-adv-x="931" d="M351.465 958.324c-45.865-7.695-83.697-36.483-103.703-75.853l-0.372-0.807c-11.404-23.319-13.359-33.466-14.243-73.263l-0.791-34.49-98.723-0.419c-97.28-0.465-98.816-0.512-105.937-3.77-9.263-4.282-19.363-14.429-23.505-23.599-4.561-10.147-4.608-27.834-0.047-37.702 4.236-9.216 14.336-19.316 23.552-23.552 6.377-2.932 10.659-3.351 36.259-3.863l29.091-0.559 0.419-313.67 0.419-313.623 3.491-12.428c14.135-48.973 52.111-86.688 100.216-100.2l1.020-0.245 13.172-3.491h507.345l13.172 3.491c49.125 13.757 87.102 51.472 100.983 99.421l0.254 1.024 3.491 12.428 0.419 313.623 0.419 313.67 29.091 0.559c25.6 0.512 29.882 0.931 36.259 3.863 9.263 4.236 19.363 14.383 23.505 23.552 2.144 5.602 3.385 12.081 3.385 18.851s-1.242 13.249-3.509 19.223l0.124-0.372c-5.23 10.213-13.318 18.331-23.207 23.458l-0.298 0.141c-7.121 3.258-8.657 3.305-105.937 3.77l-98.723 0.419-0.791 34.49c-0.884 39.936-2.886 50.176-14.289 73.263-18.43 35.896-50.402 62.644-88.998 73.756l-1.021 0.252c-12.241 3.398-13.824 3.444-122.554 3.724-60.602 0.186-114.316-0.326-119.436-1.071zM574.836 863.651c11.543-4.282 22.714-15.453 26.996-26.996 2.839-7.54 3.258-12.055 3.258-35.747v-27.089h-279.273v27.089c0 32.721 1.908 39.843 14.057 51.991 14.429 14.429 9.169 13.824 125.114 13.917 98.909 0.093 101.376 0 109.847-3.165zM744.727 374.365v-306.362l-3.258-8.657c-5.11-12.302-14.694-21.886-26.671-26.876l-0.326-0.12c-8.611-3.258-9.123-3.258-249.018-3.258s-240.407 0-249.018 3.258c-12.302 5.11-21.886 14.694-26.876 26.671l-0.12 0.326-3.258 8.657v612.724h558.545v-306.362zM359.471 538.95c-15.36-4.329-28.812-18.572-32.023-33.932-1.164-5.632-1.583-53.527-1.257-154.764 0.419-146.292 0.419-146.618 3.724-153.833 4.282-9.263 14.429-19.363 23.599-23.505 10.007-4.515 27.695-4.515 37.702 0 9.169 4.143 19.316 14.243 23.599 23.505l3.305 7.215v302.545l-3.305 7.215c-5.18 10.014-13.111 17.99-22.794 23.086l-0.293 0.14c-5.883 2.382-12.706 3.765-19.853 3.765-4.4 0-8.677-0.524-12.774-1.513l0.37 0.075zM545.652 538.95c-15.36-4.329-28.812-18.572-32.023-33.932-1.164-5.632-1.583-53.527-1.257-154.764 0.419-146.292 0.419-146.618 3.724-153.833 4.282-9.263 14.429-19.363 23.599-23.505 10.007-4.515 27.695-4.515 37.702 0 9.169 4.143 19.316 14.243 23.599 23.505l3.305 7.215v302.545l-3.305 7.215c-5.18 10.014-13.111 17.99-22.794 23.086l-0.293 0.14c-5.883 2.382-12.706 3.765-19.853 3.765-4.4 0-8.677-0.524-12.774-1.513l0.37 0.075z" />
<glyph unicode="&#xe935;" glyph-name="info" d="M479.558 959.023l-24.716-2.56c-63.302-6.33-136.611-29.743-192.605-61.58-145.268-82.665-239.057-223.744-259.072-389.725-2.886-24.204-2.886-90.112 0-114.316 8.192-68.143 30.394-137.076 61.952-192.605 75.078-131.956 200.657-223.372 346.205-251.951 37.841-7.401 58.74-9.356 100.678-9.356s62.836 1.955 100.678 9.356c56.182 11.479 106.074 30.459 151.667 56.169l-2.582-1.339c131.956 75.078 223.372 200.657 251.951 346.205 7.401 37.841 9.356 58.74 9.356 100.678s-1.955 62.836-9.356 100.678c-11.479 56.182-30.459 106.074-56.169 151.667l1.339-2.582c-81.548 143.313-220.253 236.87-382.883 258.141-18.199 2.374-84.294 4.515-96.442 3.119zM558.080 864.303c151.087-16.012 284.113-116.643 342.109-258.839 20.666-50.641 30.115-100.026 30.115-157.463 0-45.428-4.189-75.45-16.477-118.132-38.772-134.656-149.039-244.922-283.695-283.695-42.682-12.288-72.704-16.477-118.132-16.477s-75.45 4.189-118.132 16.477c-134.656 38.772-244.922 149.039-283.695 283.695-12.288 42.682-16.477 72.704-16.477 118.132s4.189 75.45 16.477 118.132c38.819 134.796 148.992 244.922 283.974 283.741 35.251 10.789 75.77 17 117.739 17 16.275 0 32.332-0.934 48.121-2.752l-1.927 0.18zM492.358 676.073c-9.653-4.952-17.372-12.506-22.391-21.741l-0.137-0.275c-2.234-4.049-3.025-9.449-3.025-20.015-0.047-12.847 0.512-15.453 4.748-22.668 5.632-9.542 17.734-18.944 28.113-21.83 9.495-2.7 25.321-1.164 33.792 3.165 27.648 14.243 33.28 53.574 10.752 74.938-8.496 7.792-19.869 12.567-32.358 12.567-7.058 0-13.761-1.525-19.795-4.264l0.301 0.122zM495.988 491.66c-10.194-4.249-18.468-11.413-23.985-20.444l-0.126-0.222-5.12-8.239v-215.273l4.655-7.866c9.914-16.943 24.157-24.576 43.706-23.459 9.402 0.559 13.452 1.722 20.061 5.772 9.681 6.004 18.618 16.989 21.132 26.019 2.374 8.657 2.374 205.405 0 214.109-2.513 8.937-11.45 19.968-20.945 25.833-6.516 4.049-10.38 5.12-20.387 5.632-1.41 0.141-3.047 0.221-4.703 0.221-5.094 0-10.011-0.761-14.642-2.176l0.354 0.093z" />
<glyph unicode="&#xe936;" glyph-name="question-circle" d="M479.558 959.023l-24.716-2.56c-63.302-6.33-136.611-29.743-192.605-61.58-145.268-82.665-239.057-223.744-259.072-389.725-2.886-24.204-2.886-90.112 0-114.316 8.192-68.143 30.394-137.076 61.952-192.605 75.078-131.956 200.657-223.372 346.205-251.951 37.841-7.401 58.74-9.356 100.678-9.356s62.836 1.955 100.678 9.356c56.182 11.479 106.074 30.459 151.667 56.169l-2.582-1.339c131.956 75.078 223.372 200.657 251.951 346.205 7.401 37.841 9.356 58.74 9.356 100.678s-1.955 62.836-9.356 100.678c-11.479 56.182-30.459 106.074-56.169 151.667l1.339-2.582c-81.548 143.313-220.253 236.87-382.883 258.141-18.199 2.374-84.294 4.515-96.442 3.119zM558.080 864.303c151.087-16.012 284.113-116.643 342.109-258.839 20.666-50.641 30.115-100.026 30.115-157.463 0-45.428-4.189-75.45-16.477-118.132-38.772-134.656-149.039-244.922-283.695-283.695-42.682-12.288-72.704-16.477-118.132-16.477s-75.45 4.189-118.132 16.477c-134.656 38.772-244.922 149.039-283.695 283.695-12.288 42.682-16.477 72.704-16.477 118.132s4.189 75.45 16.477 118.132c38.819 134.796 148.992 244.922 283.974 283.741 35.251 10.789 75.77 17 117.739 17 16.275 0 32.332-0.934 48.121-2.752l-1.927 0.18zM484.771 726.063c-35.98-4.422-75.311-22.807-103.703-48.5-21.178-19.13-45.242-57.949-50.083-80.663-3.444-16.244 3.537-35.793 16.198-45.428 14.103-10.752 34.025-12.753 49.85-4.98 12.009 5.865 16.431 11.217 25.6 30.953 20.201 43.567 65.303 65.396 109.615 53.108 15.267-4.236 22.575-7.866 33.978-16.896 22.435-17.687 35.7-46.313 34.118-73.495-0.931-16.291-6.423-27.462-20.713-42.356-17.036-17.734-53.155-39.843-84.433-51.665-21.271-8.052-33.14-24.157-33.001-44.637 0.233-33.373 30.441-53.853 63.581-43.148 13.638 4.422 51.479 22.854 68.096 33.14 20.686 12.862 38.583 27.384 54.471 43.855l0.080 0.084c35.095 37.609 48.64 75.078 44.451 122.927-6.633 72.661-54.341 132.704-119.461 157.136l-1.278 0.42c-20.181 7.014-43.442 11.064-67.649 11.064-6.942 0-13.807-0.333-20.579-0.984l0.862 0.067zM499.712 259.584c-11.581-3.256-21.112-10.533-27.208-20.194l-0.114-0.193c-5.306-8.192-5.632-9.635-5.632-24.111 0-13.871 0.465-16.105 4.655-22.528 10.612-16.337 22.435-23.040 40.588-23.040s29.975 6.703 40.588 23.040c4.189 6.423 4.655 8.657 4.655 22.528 0 14.476-0.326 15.919-5.632 24.111-6.32 10.065-16.154 17.427-27.746 20.41l-0.321 0.070c-10.612 2.746-13.359 2.746-23.831-0.093z" />
<glyph unicode="&#xe937;" glyph-name="notify" horiz-adv-x="931" d="M432.873 958.231c-63.881-7.266-121.059-31.33-168.369-67.618l0.805 0.593c-19.828-16.542-37.571-34.137-53.709-53.137l-0.516-0.623c-37.844-47.581-63.059-106.766-69.7-171.455l-0.118-1.415c-0.884-9.356-1.629-27.834-1.629-41.146 0-60.276-7.866-130.327-20.387-181.527-20.573-84.061-57.809-154.484-100.166-189.347-13.498-11.124-18.339-21.225-18.246-38.074 0.093-9.635 0.838-13.824 3.537-18.944 4.674-9.52 12.205-17.036 21.462-21.569l0.275-0.121 8.797-4.329h861.091l7.215 3.305c9.263 4.282 19.363 14.429 23.505 23.599 2.12 4.962 3.353 10.736 3.353 16.798 0 0.722-0.017 1.44-0.052 2.154l0.004-0.101c0.14 16.012-5.027 26.577-18.246 37.423-49.617 40.588-91.415 129.396-108.684 231.005-7.209 41.528-11.496 89.539-11.821 138.491l-0.002 0.308c0 60.463-10.426 107.753-34.257 155.834-16.634 34.469-38.276 63.834-64.374 88.54l-0.138 0.13c-27.974 27.229-48.175 41.565-82.897 58.74-42.321 21.452-92.272 34.018-145.157 34.018-11.119 0-22.109-0.556-32.943-1.64l1.367 0.111zM511.209 862.255c91.92-19.327 163.085-90.555 182.051-180.982l0.267-1.523c2.513-11.962 3.537-24.995 4.701-59.532 1.722-53.062 3.631-80.663 7.866-114.828 11.078-89.414 36.212-170.915 71.401-231.424 3.305-5.725 6.004-10.752 6.004-11.264 0-0.465-143.127-0.884-318.045-0.884s-318.045 0.419-318.045 0.884c0 0.512 2.7 5.539 6.004 11.264 35.188 60.509 60.323 142.010 71.401 231.424 4.282 34.397 6.191 62.092 7.866 114.828 1.117 34.956 2.141 47.476 4.701 59.718 20.573 97.42 95.651 168.401 195.305 184.692 19.084 3.119 58.228 1.955 78.522-2.374zM369.757 72.751c-18.315-6.637-31.165-23.882-31.165-44.129 0-3.645 0.417-7.193 1.205-10.599l-0.062 0.316c2.467-10.24 13.917-27.648 26.484-40.215 18.106-18.106 40.448-30.813 66.42-37.748 16.803-4.468 48.873-4.422 65.722 0.047 34.394 8.837 63.014 29.386 82.028 57.052l0.31 0.478c9.728 14.383 12.474 22.854 11.311 34.676-1.671 19.089-14.56 34.78-31.971 40.539l-0.331 0.095c-20.945 6.237-40.634-1.303-53.76-20.666-13.312-19.642-33.047-27.369-53.9-21.178-10.845 3.212-19.409 9.868-26.95 20.945-13.591 20.015-34.304 27.648-55.343 20.387z" />
<glyph unicode="&#xe938;" glyph-name="book" horiz-adv-x="838" d="M142.755 958.464c-68.748-8.052-124.416-59.857-139.543-129.862-2.374-11.171-2.513-30.022-2.513-380.369 0-352.023 0.093-369.152 2.56-380.509 14.15-65.815 62.231-113.804 128.047-128 11.264-2.42 27.834-2.56 341.364-2.56h329.542l7.866 3.677c10.054 4.748 18.618 13.312 23.366 23.366l3.677 7.866v952.32l-3.677 7.866c-5.006 10.259-13.106 18.359-23.071 23.236l-0.295 0.13-7.866 3.677-324.655 0.186c-178.548 0.093-329.216-0.372-334.801-1.024zM744.262 564.131v-302.313h-297.798c-262.842 0-299.194-0.279-310.132-2.188-12.893-2.234-32.303-7.866-38.959-11.264l-3.817-2.001v281.274c0 276.62 0.047 281.414 2.793 290.257 6.703 21.737 23.785 38.819 45.801 45.847 7.587 2.42 21.504 2.56 305.012 2.607l297.1 0.093v-302.313zM744.262 99.84v-69.818h-296.588c-291.887 0-296.727 0.047-305.571 2.793-22.158 7.036-39.212 24.274-45.858 46.053l-0.129 0.492c-2.42 7.913-2.793 12.102-2.281 23.924 0.559 12.94 1.164 15.407 5.772 25.135 6.237 13.172 20.015 27.648 31.744 33.327 16.57 8.052 0.559 7.68 319.302 7.82l293.609 0.093v-69.818z" />
<glyph unicode="&#xe939;" glyph-name="paperclip" d="M619.52 958.157c-38.54-4.272-73.524-16.285-104.45-34.461l1.231 0.669c-17.562-10.342-34.355-23.45-54.17-42.496-47.36-45.363-358.502-349.389-369.971-361.472-70.502-74.394-103.68-182.477-87.91-286.464 17.664-116.326 95.13-216.781 205.158-266.086 122.778-55.040 269.466-36.762 374.016 46.541 9.062 7.219 109.619 103.936 223.437 214.938 166.042 161.946 207.872 203.622 211.558 210.688 6.298 12.237 6.656 32.358 0.717 43.827-5.619 10.77-14.201 19.336-24.666 24.783l-0.319 0.151c-6.321 2.69-13.673 4.254-21.391 4.254-7.765 0-15.16-1.583-21.88-4.443l0.366 0.138c-7.117-3.277-41.882-36.352-183.45-174.336-112.302-109.305-179.559-174.957-246.773-240.653l40.385 39.334c-37.837-37.069-58.829-53.197-87.347-67.072-42.138-20.48-81.818-29.082-125.696-27.085-68.506 3.021-127.488 28.826-174.285 76.186-30.764 30.467-53.376 69.111-64.308 112.404l-0.357 1.669c-4.282 17.050-6.739 36.624-6.739 56.771 0 62.5 23.646 119.478 62.48 162.474l-0.189-0.212c17.92 19.712 377.293 369.562 388.403 378.112 14.779 10.801 31.947 19.499 50.438 25.174l1.223 0.323c13.926 4.25 17.818 4.659 41.779 4.659 31.386 0 44.749-2.918 69.53-15.104 37.53-18.483 65.178-49.818 77.466-87.859 4.25-13.107 5.427-20.173 6.144-36.762 1.792-39.987-9.574-73.421-34.611-101.632-4.506-5.069-90.982-89.907-192.154-188.518-133.99-130.662-186.061-180.378-191.949-183.347-18.586-9.267-44.083-5.478-58.675 8.704-9.353 8.535-15.198 20.776-15.198 34.382 0 6.263 1.239 12.237 3.484 17.69l-0.113-0.309c3.328 8.96 13.619 19.302 190.31 191.539 207.206 201.984 196.966 190.925 196.966 212.992 0.022 0.55 0.035 1.196 0.035 1.845 0 12.656-4.859 24.177-12.814 32.8l0.030-0.033c-9.323 10.657-22.948 17.351-38.136 17.351-6.482 0-12.679-1.219-18.375-3.441l0.344 0.118c-8.806-3.328-14.080-7.731-42.65-35.533-204.851-199.066-345.293-336.896-350.976-344.474-10.502-14.065-18.98-30.409-24.565-48.039l-0.318-1.164c-4.096-13.619-4.659-18.176-4.71-40.090-0.102-29.389 2.355-41.216 13.261-63.949 15.942-33.883 43.101-60.297 76.596-74.887l0.972-0.377c22.118-9.574 33.638-11.725 62.566-11.622 22.733 0.051 27.238 0.563 40.55 4.608 17.971 5.478 37.939 15.258 50.739 24.883 9.267 6.963 340.838 329.114 378.982 368.179 37.376 38.349 60.314 81.613 69.427 131.072 3.942 21.402 3.891 66.202-0.154 88.013-7.738 38.332-22.765 72.211-43.661 101.629l0.551-0.816c-8.387 10.916-16.821 20.599-25.801 29.744l0.047-0.048c-54.835 55.245-130.099 81.766-210.432 74.138z" />
<glyph unicode="&#xe93a;" glyph-name="building" d="M207.127 910.941c-15.407-2.793-22.807-5.213-35.607-11.59-35.418-17.882-61.962-48.994-73.416-86.676l-0.266-1.016c-2.886-9.402-3.119-30.767-3.956-372.643l-0.884-362.682-30.72-0.838c-29.417-0.838-31.046-1.071-38.4-5.399-16.058-9.495-23.087-21.923-22.947-40.681 0.14-15.36 3.631-23.226 14.988-33.699 14.662-13.545-30.301-12.381 496.081-12.381 532.573 0 482.025-1.443 497.757 14.243 6.842 6.842 9.449 10.985 11.729 18.897 1.396 4.162 2.202 8.955 2.202 13.936 0 17.031-9.42 31.862-23.335 39.566l-0.232 0.118c-7.354 4.329-8.983 4.561-38.4 5.399l-30.72 0.838-0.884 362.682c-0.838 341.876-1.071 363.241-3.956 372.643-14.299 47.107-50.874 83.374-97.148 96.977l-1.016 0.256-13.079 3.724-297.798 0.279c-238.639 0.233-300.218-0.14-309.993-1.955zM811.613 815.29c11.683-6.004 21.69-17.873 24.529-29.184 1.257-5.073 1.815-113.385 1.815-358.959v-351.651h-651.916v351.651c0 241.804 0.559 353.932 1.769 358.819 4.003 15.686 19.596 30.255 36.026 33.513 4.096 0.791 135.727 1.35 292.538 1.21l285.137-0.233 10.1-5.167zM362.31 679.657c-9.123-1.908-12.847-3.956-21.271-11.543-10.845-9.821-14.15-17.734-14.15-33.699 0-10.705 0.791-15.127 3.677-20.48 4.608-8.657 12.893-16.524 22.714-21.597 7.308-3.817 9.356-4.003 41.798-4.003 33.932 0 34.211 0.047 43.892 4.794 15.274 7.077 25.678 22.276 25.678 39.905 0 0.584-0.011 1.165-0.034 1.744l0.003-0.083c0 18.944-9.914 34.071-27.695 42.17-6.656 3.025-11.683 3.537-37.562 3.863-16.431 0.233-33.094-0.233-37.050-1.071zM595.875 679.61c-20.947-4.214-36.502-22.467-36.502-44.352 0-0.346 0.004-0.691 0.012-1.035l-0.001 0.051c-0.012-0.389-0.020-0.847-0.020-1.307 0-17.608 10.402-32.787 25.395-39.727l0.271-0.112c9.681-4.748 9.961-4.794 43.892-4.794 32.442 0 34.49 0.186 41.798 4.003 9.62 4.906 17.369 12.296 22.575 21.335l0.139 0.262c5.26 9.728 5.213 31.232 0 41.1-5.893 9.611-14.101 17.281-23.868 22.369l-0.336 0.159c-7.261 3.165-60.835 4.655-73.356 2.048zM362.31 493.615c-9.123-1.908-12.847-3.91-21.271-11.543-10.845-9.821-14.15-17.687-14.15-33.699 0-10.705 0.791-15.127 3.677-20.48 4.608-8.611 12.893-16.477 22.714-21.597 7.308-3.77 9.356-4.003 41.798-4.003 33.932 0 34.211 0.047 43.892 4.794 15.275 7.090 25.677 22.297 25.677 39.934 0 0.574-0.011 1.145-0.033 1.713l0.002-0.082c0 18.944-9.914 34.071-27.695 42.17-6.656 3.025-11.683 3.537-37.562 3.91-16.431 0.233-33.094-0.279-37.050-1.117zM595.875 493.568c-20.944-4.195-36.502-22.437-36.502-44.313 0-0.343 0.004-0.685 0.011-1.026l-0.001 0.051c-0.012-0.385-0.019-0.839-0.019-1.294 0-17.624 10.399-32.82 25.395-39.786l0.271-0.113c9.681-4.748 9.961-4.794 43.892-4.794 32.442 0 34.49 0.233 41.798 4.003 9.821 5.12 18.106 12.986 22.714 21.597 5.26 9.728 5.213 31.232 0 41.1-5.866 9.633-14.081 17.31-23.869 22.371l-0.335 0.157c-7.261 3.212-60.835 4.701-73.356 2.048zM362.31 307.572c-9.123-1.908-12.847-3.91-21.271-11.543-10.845-9.775-14.15-17.687-14.15-33.652 0-10.705 0.791-15.127 3.677-20.48 4.608-8.657 12.893-16.524 22.714-21.644 7.308-3.77 9.356-3.956 41.798-3.956 33.932 0 34.211 0 43.892 4.748 15.276 7.090 25.679 22.297 25.679 39.935 0 0.59-0.012 1.177-0.035 1.761l0.003-0.084c0 18.944-9.914 34.071-27.695 42.124-6.656 3.025-11.683 3.537-37.562 3.91-16.431 0.233-33.094-0.279-37.050-1.117zM595.875 307.572c-20.947-4.214-36.502-22.467-36.502-44.352 0-0.346 0.004-0.691 0.012-1.035l-0.001 0.051c-0.012-0.385-0.019-0.839-0.019-1.294 0-17.624 10.399-32.82 25.395-39.786l0.271-0.113c9.681-4.748 9.961-4.748 43.892-4.748 32.442 0 34.49 0.186 41.798 3.956 9.821 5.12 18.106 12.986 22.714 21.644 5.26 9.728 5.213 31.232 0 41.053-5.878 9.637-14.089 17.326-23.869 22.416l-0.335 0.158c-7.261 3.165-60.835 4.655-73.356 2.048z" />
<glyph unicode="&#xe93b;" glyph-name="user" d="M493.568 959.078c-43.471-3.26-83.18-16.874-117.45-38.361l1.072 0.627c-54.221-33.126-97.587-92.262-113.101-154.112-4.636-19.573-7.294-42.045-7.294-65.139 0-11.504 0.66-22.854 1.943-34.015l-0.127 1.362c14.387-102.861 89.754-187.955 188.877-213.197 19.397-4.932 41.663-7.763 64.592-7.763 22.852 0 45.047 2.812 66.259 8.109l-1.878-0.397c90.451 24.427 160.062 94.753 183.059 183.819l0.39 1.781c11.52 46.49 9.421 101.222-5.478 143.872-25.907 74.035-81.613 131.379-153.702 158.106-14.19 5.516-30.872 10.028-48.143 12.768l-1.418 0.185c-13.78 1.603-29.745 2.517-45.925 2.517-4.106 0-8.197-0.059-12.275-0.176l0.599 0.014zM540.877 854.63c101.069-20.787 153.856-128.666 107.827-220.262-19.712-39.219-55.501-67.738-99.635-79.462-12.646-3.379-18.074-3.942-37.069-3.942s-24.422 0.563-37.069 3.942c-72.192 19.2-119.603 83.046-116.019 156.262 3.482 71.117 52.89 128.358 123.904 143.565 13.875 2.918 43.52 2.918 58.061-0.102zM293.888 344.627c-107.735-5.981-197.267-77.664-229.574-175.393l-0.518-1.811c-10.906-34.202-12.954-57.088-12.339-135.168l0.512-57.6 4.045-8.653c5.12-10.854 14.541-20.429 24.883-25.242 11.315-5.274 32.154-5.325 43.264-0.102 9.216 4.352 19.61 14.541 23.91 23.501 5.12 10.547 5.99 22.579 5.99 83.917 0.051 61.491 0.768 69.53 8.090 90.931 15.053 44.083 51.2 80.384 94.874 95.232 25.702 8.755 16.896 8.448 254.976 8.448s229.274 0.307 254.976-8.448c43.674-14.848 79.821-51.149 94.874-95.232 7.322-21.504 8.038-29.389 8.038-91.699 0-33.638 0.717-63.078 1.638-68.813 2.828-16.779 13.485-30.58 28.012-37.703l0.302-0.134c11.11-5.222 31.949-5.171 43.264 0.102 10.342 4.813 19.763 14.387 24.883 25.242l4.045 8.653 0.512 57.6c0.614 78.080-1.434 100.966-12.339 135.168-12.953 39.658-34.107 73.578-61.601 101.179l0.008-0.008c-38.963 39.68-82.944 62.413-142.387 73.574-11.52 2.202-38.605 2.509-233.472 2.714-121.242 0.102-224.205 0-228.864-0.256z" />
<glyph unicode="&#xe93c;" glyph-name="car" d="M260.561 910.755c-36.495-7.612-67.226-28.193-87.822-56.601l-0.288-0.418c-11.078-16.198-168.913-293.609-170.729-300.172-1.071-3.956-1.722-60.044-1.722-154.95 0-158.487 0.047-159.977 8.425-183.855 11.404-32.675 41.239-65.21 72.099-78.662l11.171-4.841 1.908-18.572c4.282-42.124 23.599-77.405 55.436-101.329 67.212-50.548 164.585-29.882 205.591 43.66 10.007 17.873 17.315 43.241 17.408 60.137v8.099h279.924v-7.727c0-12.055 4.794-32.768 10.845-46.871 35.7-83.409 140.009-111.569 212.154-57.297 31.837 23.924 51.153 59.206 55.436 101.329l1.908 18.572 11.171 4.841c30.86 13.452 60.695 45.987 72.099 78.662 8.378 23.878 8.425 25.367 8.425 183.855 0 94.906-0.652 150.993-1.722 154.95-1.815 6.563-159.651 283.974-170.729 300.172-10.352 13.77-22.33 25.57-35.826 35.413l-0.48 0.334c-12.612 8.027-27.149 14.787-42.568 19.536l-1.278 0.339c-10.519 3.025-23.18 3.212-254.278 3.491-204.288 0.279-245.341-0.047-256.559-2.095zM756.922 815.569c4.701-2.188 10.892-6.656 13.731-9.914 4.561-5.167 121.623-207.36 124.556-215.18 1.117-2.839-17.827-2.979-383.023-2.979-211.316 0-384.186 0.605-384.186 1.35 0 2.793 119.482 209.734 124.695 216.017 3.072 3.631 9.449 8.425 14.243 10.659l8.704 4.049h472.716l8.564-4.003zM929.745 370.874l-0.465-124.416-6.842-9.914c-4.081-6.562-9.848-11.731-16.703-14.979l-0.239-0.102-10.1-5.167h-766.557l-9.728 4.748c-10.46 5.165-18.522 13.86-22.745 24.497l-0.109 0.312c-1.769 4.934-2.234 31.977-2.327 127.86l-0.047 121.623h836.329l-0.465-124.463zM169.053 398.522c-10.287-3.631-22.668-16.291-26.252-26.857-1.836-4.78-2.9-10.31-2.9-16.088 0-12.779 5.201-24.342 13.603-32.689l0.002-0.002c13.172-13.172 15.872-13.591 80.198-13.452 38.028 0.093 57.297 0.745 61.021 2.141 10.054 3.724 20.015 12.195 24.995 21.318 3.807 6.47 6.056 14.253 6.056 22.561 0 17.63-10.126 32.895-24.879 40.297l-0.26 0.118-10.799 5.585-56.599-0.14c-46.825-0.093-57.903-0.605-64.186-2.793zM723.363 395.869c-15.013-7.519-25.139-22.785-25.139-40.415 0-8.308 2.249-16.091 6.17-22.773l-0.115 0.212c4.98-9.123 14.941-17.594 24.995-21.318 3.724-1.396 22.993-2.048 61.021-2.141 47.663-0.14 56.785 0.279 63.953 2.7 11.078 3.77 23.18 15.919 26.95 26.95 1.836 4.78 2.9 10.31 2.9 16.088 0 12.779-5.201 24.342-13.603 32.689l-0.002 0.002c-13.126 13.126-15.825 13.591-80.477 13.591h-55.855l-10.799-5.585zM278.156 116.876c-0.047-8.611-5.027-19.037-12.847-26.857-26.671-26.671-72.099-11.59-78.383 25.972l-1.21 7.261h92.486l-0.047-6.377zM837.073 115.991c-3.489-22.37-22.617-39.285-45.696-39.285-0.102 0-0.204 0-0.306 0.001h0.016c-0.035 0-0.076 0-0.117 0-6.546 0-12.793 1.282-18.503 3.609l0.328-0.118c-14.801 6.563-26.857 22.947-26.95 36.678l-0.047 6.377h92.486l-1.21-7.261z" />
</font>
</defs>
</svg>
